1 сезон

1 сезон

iTunes

1

КиноПоиск HD

Кинопоиск HD

iTunes

13

1 сезон

RePack

30

Новинка

ВАЖНО

ИГРА 18+

pack

RePack

MK11
pack

Легкие деньги

RePack

jed

RePack

fifa19

RePack

RDR2

RePack

NEED FOR SPEED™ PAYBACK

4 сезон

9 сезон

Бесстыжие 9 сезон

Все сериалы

все сериалы на PB.wtf

RePack

FAR CRY 5
  
Magnet ссылка

Плохой Санта / Bad Santa (Терри Цвигофф) [2003 г., драма, комедия, криминал, BDRip-AVC, DUB, VO] pb.wtf

Плохой Санта через торрент pb.wtf

Размер: 1.12 GB | Добавлен: 8 лет 3 мес. назад | Торрент скачан:174 раза
Скачать  

31-12-2012 13:57 Плохой Санта Скачать торрент  

Плохой Санта / Bad Santa
Год выпуска: 2003
Страна: США
Жанр: драма, комедия, криминал
Продолжительность: 01:39:16
    Перевод:
  • Дубляж + Одноголосый закадровый (Карповский)
  • Одноголосый закадровый (Д. Пучков) [Гоблин]
Режиссер: Терри Цвигофф
Продюссер: Сара Обри, Джон Камерон, Боб Вайнштейн
Сценарий: Гленн Фикарра, Джон Рекуа

Мировой рейтинг IMDB 7.20 (70 233)


В ролях: Билли Боб Торнтон, Тони Кокс, Бретт Келли, Лорен Грэм, Лорен Том, Берни Мак, Джон Риттер, Аджай Найду, Лорна Скотт, Харрисон Бикер, Алексей Колган, Андрей Бархударов, Иван Витер, Мария Овчинникова, Александр Груздев

Описание: Вилли — необычный Санта-Клаус. Раз в год на Рождество он вместе со своим напарником грабит очередной универмаг. К тому же в прошлом он отсидел в тюрьме, был не единожды женат, а ныне Вилли — злостный бабник и пропойца. Он по-настоящему плохой, невыносимый Санта! Но нашелся мальчуган, который все-таки в него поверил. И Вилли придется творить настоящие чудеса, чтоб на сей раз довести задуманное до конца!



Качество: BDRip-AVC
Формат: MKV
Видео кодек: H.264
Аудио кодек: AC3
Видео: H.264, 720x390 pix., 845 Kbps, 23.976 fps, High 10@L5.1
Аудио#1: AC3, 48.0 KHz, 384 Kbps, 6 channels, 16 bits |Дубляж + Одноголосый закадровый (Карповский)|
Аудио#2: AC3, 48.0 KHz, 384 Kbps, 6 channels, 16 bits |Одноголосый закадровый (Д. Пучков) [Гоблин]|



General
Unique ID : 240626122501806382102233195788088638225 (0xB506E7CD10C8144C9149DD9DC2BBFB11)
Complete name : D:BDRip-AVCBad Santa (2003).mkv
Format : Matroska
Format version : Version 2
File size : 1.12 GiB
Duration : 1h 39mn
Overall bit rate : 1 614 Kbps
Encoded date : UTC 2012-12-31 13:44:21
Writing application : mkvmerge v5.8.0 ('No Sleep / Pillow') built on Sep 2 2012 15:37:04
Writing library : libebml v1.2.3 + libmatroska v1.3.0

Video
ID : 1
Format : AVC
Format/Info : Advanced Video Codec
Format profile : High 10@L5.1
Format settings, CABAC : Yes
Format settings, ReFrames : 15 frames
Codec ID : V_MPEG4/ISO/AVC
Duration : 1h 39mn
Bit rate : 845 Kbps
Width : 720 pixels
Height : 390 pixels
Display aspect ratio : 1.85:1
Frame rate mode : Constant
Frame rate : 23.976 fps
Color space : YUV
Chroma subsampling : 4:2:0
Bit depth : 10 bits
Scan type : Progressive
Bits/(Pixel*Frame) : 0.126
Stream size : 578 MiB (50%)
Writing library : x264 core 129 r2230+696+35 805d074 tMod [10-bit@all X86_64]
Encoding settings : cabac=1 / ref=15 / deblock=1:-3:-3 / analyse=0x3:0x133 / me=tesa / subme=11 / psy=1 / fade_compensate=0.00 / psy_rd=1.00:0.15 / mixed_ref=1 / me_range=32 / chroma_me=1 / trellis=2 / 8x8dct=1 / cqm=0 / deadzone=21,11 / fast_pskip=1 / chroma_qp_offset=-3 / threads=6 / lookahead_threads=1 / sliced_threads=0 / nr=0 / decimate=1 / interlaced=0 / bluray_compat=0 / constrained_intra=0 / fgo=0 / bframes=10 / b_pyramid=2 / b_adapt=2 / b_bias=0 / direct=2 / weightb=1 / open_gop=0 / weightp=1 / keyint=240 / keyint_min=25 / scenecut=40 / intra_refresh=0 / rc_lookahead=60 / rc=2pass / mbtree=1 / bitrate=845 / ratetol=1.0 / qcomp=0.60 / qpmin=0 / qpmax=81 / qpstep=4 / cplxblur=20.0 / qblur=0.5 / ip_ratio=1.40 / aq=1:1.00
Language : English
Default : Yes
Forced : No
Color primaries : BT.709
Transfer characteristics : BT.709
Matrix coefficients : BT.709

Audio #1
ID : 2
Format : AC-3
Format/Info : Audio Coding 3
Mode extension : CM (complete main)
Format settings, Endianness : Big
Codec ID : A_AC3
Duration : 1h 39mn
Bit rate mode : Constant
Bit rate : 384 Kbps
Channel(s) : 6 channels
Channel positions : Front: L C R, Side: L R, LFE
Sampling rate : 48.0 KHz
Bit depth : 16 bits
Compression mode : Lossy
Stream size : 273 MiB (24%)
Title : Дубляж + Одноголосый закадровый (Карповский)
Language : Russian
Default : Yes
Forced : No

Audio #2
ID : 3
Format : AC-3
Format/Info : Audio Coding 3
Mode extension : CM (complete main)
Format settings, Endianness : Big
Codec ID : A_AC3
Duration : 1h 39mn
Bit rate mode : Constant
Bit rate : 384 Kbps
Channel(s) : 6 channels
Channel positions : Front: L C R, Side: L R, LFE
Sampling rate : 48.0 KHz
Bit depth : 16 bits
Compression mode : Lossy
Stream size : 273 MiB (24%)
Title : Одноголосый закадровый (Д. Пучков) [Гоблин]
Language : Russian
Default : No
Forced : No


pb.wtf



Скачать Плохой Санта через торрент http://s41.radikal.ru/i093/1212/13/99b1d672ab86.png Скачать фильм Плохой Санта через торрент бесплантно в хорошем качестве Описание: Вилли — необычный Санта-Клаус. Раз в год на Рождество он вместе со своим напарником грабит очередной универмаг. К тому же в ... 10 10 3
Info! Золотая раздача, скачанное не засчитывается.
Торрент: Зарегистрирован [2012-12-31 13:57] · скачан: 174 раз
Статус: √ проверено
Размер: 1.12 GB
Как cкачать? Как скачать Плохой Санта через торрент | UTorrent

% Раздел Тема Автор DL S | L
Фильмы [HD 720p, 1080p] (Хороший звук DUB, MVO) [ 4.49 GB ] Плохой Санта / Bad Santa [Unrated Cut] [2003 BDRip 1080p HEVC ] Мичман37 Скачать
1 | 0
Фильмы [HD 720p, 1080p] (Хороший звук DUB, MVO) [ 15.13 GB ] Плохой Санта / Bad Santa [2003 Германия BDRip 1080p] DUB MVO AVO VO ENG GEKADOL Скачать
1 | 0
Ultra HD (UHD: 2K, 4K, 8K) — видео сверхвысокой чёткости [ 27.75 GB ] Плохой Санта 2 / Bad Santa 2 [2016 UHD WEBRip 2160p] [UNRATED] DUB+AVO bober100 Скачать
1 | 1
Фильмы без перевода [ 26.53 GB ] Плохой Санта 2 / Bad Santa 2 [2016 BD Remux] [Оригинал-ENG Spanish] smaster Скачать
1 | 0
Фильмы 2016 [DVDrip, WEB-DLRip, HDrip] (DUB, MVO) [ 1.42 GB ] Плохой Санта 2 / Bad Santa 2 [2016 BDRip] - Twi7ter Скачать
1 | 0
Фильмы 2016 [DVDrip, WEB-DLRip, HDrip] (DUB, MVO) [ 1.42 GB ] Плохой Санта 2 / Bad Santa 2 [2016 BDRip] - Twi7ter Скачать
1 | 0
R.G. Resident & PiratVoice - Фильмы, Видео [ 2.37 GB ] Плохой Санта 2 / Bad Santa 2 [2016 BDRip-AVC ] - + AVO [Дмитрий «Гоблин» Пучков] schultz Скачать
1 | 0

28-11-2019 20:33  

Отключить всю рекламу на сайте

31-12-2012 14:52 Плохой Санта Скачать торрент  

каждый год по традиции перед нг смотрю его))pb.wtf



31-12-2012 15:16 Плохой Санта Скачать торрент  

Четкий фильм, особенно в этом переводе)) Спасибо за раздачу! Скорости бы...pb.wtf



31-12-2012 15:31 Плохой Санта Скачать торрент  

классика жанра!!!pb.wtf



    Дорогой пользователь! Огромная просьба, поблагодарите релизера, оцените раздачу и оставьте свои комментарий, если Вы скачали Плохой Санта через торрент бесплатно! Внесите свою лепту в развитие PiratBit!
    Комментировать посты могут только пользователи прошедшие не сложную регистрацию
    Показать сообщения:    

    Плохой Санта через торрент
    Скачать бесплатно Плохой Санта
    Плохой Санта скачать торрент
    Плохой Санта смотреть онлайн
    Cкачать фильм Плохой Санта бесплатно
    Плохой Санта скачать торрент в хорошем качестве
    Плохой Санта смотреть онлайн бесплатно в хорошем качестве


    Вы не можете начинать темы
    Вы не можете отвечать на сообщения
    Вы не можете редактировать свои сообщения
    Вы не можете удалять свои сообщения
    Вы не можете голосовать в опросах
    Вы не можете прикреплять файлы к сообщениям
    Вы можете скачивать файлы