2 сезон

iTunes

MVO

1

2 сезон

iTunes

iTunes

1 сезон

RePack

30

Новинка

ВАЖНО

ИГРА 18+

pack

RePack

MK11
pack

Легкие деньги

RePack

jed

RePack

fifa19

RePack

RDR2

RePack

NEED FOR SPEED™ PAYBACK

4 сезон

9 сезон

Бесстыжие 9 сезон

Все сериалы

все сериалы на PB.wtf

RePack

FAR CRY 5

Anonymous, добрый вечер, мы не успеваем собрать деньги на оплату серверов за декабрь и январь, помогите нам пожалуйста в это трудное время. В качестве благодарности мы отключим Вам всю рекламу на сайте (укажите свой ник в строку Ваше имя)!

×
  
Magnet ссылка

Far Cry 3. Выживание / Far Cry 3. Experience [01-12 из 12] [2012 г., Комедия, приключения, короткометражка, WEB-DLRip] pb.wtf

Far Cry 3. Выживание через торрент pb.wtf

Размер: 658 MB | Добавлен: 8 лет назад | Торрент скачан:250 раз
Скачать  

31-12-2012 17:44 Far Cry 3. Выживание Скачать торрент  

Far Cry 3. Выживание / Far Cry 3. Experience [01-12 из 12]

Год выпуска: 2012
Страна: Франция
Жанр: комедия, приключения, короткометражка
Студия: Ubisoft
Продолжительность: 12 x ~ 00:05:00
Перевод: Двухголосый (Профессиональный)

Описание: Кристофер Минц-Пласс приезжает на остров Рук и его путешествие на райский остров превращается в ад по мере столкновения с безумием Вааса и его людей. Добро пожаловать в джунгли.

Качество: WEB-DLRip
Формат: *.mp4
Видео кодек: MPEG-4 AVC
Аудио кодек: AAC
Видео: 1280х720, ~ 2613 Кбит/с, 25 fps
Аудио: AAC, 2 ch, 192 Кбит/с, 44 КГц
скриншот   скриншот   скриншот  

Код:

Общее
Полное имя                               : F:Far Cry ExperienceFar Cry Experience - 1 [ RUS ].mp4
Формат                                   : MPEG-4
Профиль формата                          : Base Media / Version 2
Идентификатор кодека                     : mp42
Размер файла                             : 124 Мбайт
Продолжительность                        : 6 м. 1 с.
Режим общего битрейта                    : Переменный
Общий поток                              : 2891 Кбит/сек
Дата кодирования                         : UTC 2012-11-08 14:29:33
Дата пометки                             : UTC 2012-11-08 14:29:33
gsst                                     : 0
gstd                                     : 361301
gssd                                     : BADC23AEAHH1356448533902043
gshh                                     : r10---sn-n8v7lnes.c.youtube.com

Видео
Идентификатор                            : 1
Формат                                   : AVC
Формат/Информация                        : Advanced Video Codec
Профиль формата                          : High@L3.1
Параметр CABAC формата                   : Да
Параметр ReFrames формата                : 1 кадр
Идентификатор кодека                     : avc1
Идентификатор кодека/Информация          : Advanced Video Coding
Продолжительность                        : 6 м. 1 с.
Битрейт                                  : 2696 Кбит/сек
Максимальный битрейт                     : 6957 Кбит/сек
Ширина                                   : 1280 пикселей
Высота                                   : 720 пикселей
Соотношение сторон                       : 16:9
Режим частоты кадров                     : Постоянный
Частота кадров                           : 25,000 кадров/сек
Цветовое пространство                    : YUV
Субдискретизация насыщенности            : 4:2:0
Битовая глубина                          : 8 бит
Тип развёртки                            : Прогрессивная
Бит/(Пиксели*Кадры)                      : 0.117
Размер потока                            : 116 Мбайт (93%)
Дата пометки                             : UTC 2012-11-08 14:29:33

Аудио
Идентификатор                            : 2
Формат                                   : AAC
Формат/Информация                        : Advanced Audio Codec
Профиль формата                          : LC
Идентификатор кодека                     : 40
Продолжительность                        : 6 м. 1 с.
Вид битрейта                             : Переменный
Битрейт                                  : 192 Кбит/сек
Максимальный битрейт                     : 202 Кбит/сек
Каналы                                   : 2 канала
Расположение каналов                     : Front: L R
Частота                                  : 44,1 КГц
Метод сжатия                             : С потерями
Размер потока                            : 8,27 Мбайт (7%)
Заголовок                                : IsoMedia File Produced by Google, 5-11-2011
Дата кодирования                         : UTC 2012-11-08 14:29:33
Дата пометки                             : UTC 2012-11-08 14:29:33

Код:

Общее
Полное имя                               : F:Far Cry ExperienceFar Cry Experience - 2 [ RUS ].mp4
Формат                                   : MPEG-4
Профиль формата                          : Base Media / Version 2
Идентификатор кодека                     : mp42
Размер файла                             : 78,0 Мбайт
Продолжительность                        : 3 м. 51 с.
Режим общего битрейта                    : Переменный
Общий поток                              : 2823 Кбит/сек
Дата кодирования                         : UTC 2012-11-08 14:36:16
Дата пометки                             : UTC 2012-11-08 14:36:16
gsst                                     : 0
gstd                                     : 231803
gssd                                     : BADC23AA4HH1356448549830014
gshh                                     : r4---sn-n8v7lnee.c.youtube.com

Видео
Идентификатор                            : 1
Формат                                   : AVC
Формат/Информация                        : Advanced Video Codec
Профиль формата                          : High@L3.1
Параметр CABAC формата                   : Да
Параметр ReFrames формата                : 1 кадр
Идентификатор кодека                     : avc1
Идентификатор кодека/Информация          : Advanced Video Coding
Продолжительность                        : 3 м. 51 с.
Битрейт                                  : 2629 Кбит/сек
Максимальный битрейт                     : 8474 Кбит/сек
Ширина                                   : 1280 пикселей
Высота                                   : 720 пикселей
Соотношение сторон                       : 16:9
Режим частоты кадров                     : Постоянный
Частота кадров                           : 25,000 кадров/сек
Цветовое пространство                    : YUV
Субдискретизация насыщенности            : 4:2:0
Битовая глубина                          : 8 бит
Тип развёртки                            : Прогрессивная
Бит/(Пиксели*Кадры)                      : 0.114
Размер потока                            : 72,6 Мбайт (93%)
Дата пометки                             : UTC 2012-11-08 14:36:16

Аудио
Идентификатор                            : 2
Формат                                   : AAC
Формат/Информация                        : Advanced Audio Codec
Профиль формата                          : LC
Идентификатор кодека                     : 40
Продолжительность                        : 3 м. 51 с.
Вид битрейта                             : Переменный
Битрейт                                  : 192 Кбит/сек
Максимальный битрейт                     : 202 Кбит/сек
Каналы                                   : 2 канала
Расположение каналов                     : Front: L R
Частота                                  : 44,1 КГц
Метод сжатия                             : С потерями
Размер потока                            : 5,30 Мбайт (7%)
Заголовок                                : IsoMedia File Produced by Google, 5-11-2011
Дата кодирования                         : UTC 2012-11-08 14:36:16
Дата пометки                             : UTC 2012-11-08 14:36:16

Код:

Общее
Полное имя                               : F:Far Cry ExperienceFar Cry Experience - 3 [ RUS ].mp4
Формат                                   : MPEG-4
Профиль формата                          : Base Media / Version 2
Идентификатор кодека                     : mp42
Размер файла                             : 93,3 Мбайт
Продолжительность                        : 4 м. 40 с.
Режим общего битрейта                    : Переменный
Общий поток                              : 2796 Кбит/сек
Дата кодирования                         : UTC 2012-11-14 20:18:05
Дата пометки                             : UTC 2012-11-14 20:18:05
gsst                                     : 0
gstd                                     : 280125
gssd                                     : B4A7D6E23HH1356448563042223
gshh                                     : r3---sn-n8v7lne6.c.youtube.com

Видео
Идентификатор                            : 1
Формат                                   : AVC
Формат/Информация                        : Advanced Video Codec
Профиль формата                          : High@L3.1
Параметр CABAC формата                   : Да
Параметр ReFrames формата                : 1 кадр
Идентификатор кодека                     : avc1
Идентификатор кодека/Информация          : Advanced Video Coding
Продолжительность                        : 4 м. 40 с.
Битрейт                                  : 2601 Кбит/сек
Максимальный битрейт                     : 4830 Кбит/сек
Ширина                                   : 1280 пикселей
Высота                                   : 720 пикселей
Соотношение сторон                       : 16:9
Режим частоты кадров                     : Постоянный
Частота кадров                           : 25,000 кадров/сек
Цветовое пространство                    : YUV
Субдискретизация насыщенности            : 4:2:0
Битовая глубина                          : 8 бит
Тип развёртки                            : Прогрессивная
Бит/(Пиксели*Кадры)                      : 0.113
Размер потока                            : 86,8 Мбайт (93%)
Дата пометки                             : UTC 2012-11-14 20:18:05

Аудио
Идентификатор                            : 2
Формат                                   : AAC
Формат/Информация                        : Advanced Audio Codec
Профиль формата                          : LC
Идентификатор кодека                     : 40
Продолжительность                        : 4 м. 39 с.
Вид битрейта                             : Переменный
Битрейт                                  : 192 Кбит/сек
Максимальный битрейт                     : 201 Кбит/сек
Каналы                                   : 2 канала
Расположение каналов                     : Front: L R
Частота                                  : 44,1 КГц
Метод сжатия                             : С потерями
Размер потока                            : 6,41 Мбайт (7%)
Заголовок                                : IsoMedia File Produced by Google, 5-11-2011
Дата кодирования                         : UTC 2012-11-14 20:18:05
Дата пометки                             : UTC 2012-11-14 20:18:05

Код:

Общее
Полное имя                               : F:Far Cry ExperienceFar Cry Experience - 4 [ RUS ].mp4
Формат                                   : MPEG-4
Профиль формата                          : Base Media / Version 2
Идентификатор кодека                     : mp42
Размер файла                             : 122 Мбайт
Продолжительность                        : 6 м. 5 с.
Режим общего битрейта                    : Переменный
Общий поток                              : 2792 Кбит/сек
Дата кодирования                         : UTC 2012-11-20 20:38:37
Дата пометки                             : UTC 2012-11-20 20:38:37
gsst                                     : 0
gstd                                     : 365968
gssd                                     : B4A7D6E2CHH1356448575732227
gshh                                     : r12---sn-n8v7lne6.c.youtube.com

Видео
Идентификатор                            : 1
Формат                                   : AVC
Формат/Информация                        : Advanced Video Codec
Профиль формата                          : High@L3.1
Параметр CABAC формата                   : Да
Параметр ReFrames формата                : 1 кадр
Идентификатор кодека                     : avc1
Идентификатор кодека/Информация          : Advanced Video Coding
Продолжительность                        : 6 м. 5 с.
Битрейт                                  : 2598 Кбит/сек
Максимальный битрейт                     : 7717 Кбит/сек
Ширина                                   : 1280 пикселей
Высота                                   : 720 пикселей
Соотношение сторон                       : 16:9
Режим частоты кадров                     : Постоянный
Частота кадров                           : 25,000 кадров/сек
Цветовое пространство                    : YUV
Субдискретизация насыщенности            : 4:2:0
Битовая глубина                          : 8 бит
Тип развёртки                            : Прогрессивная
Бит/(Пиксели*Кадры)                      : 0.113
Размер потока                            : 113 Мбайт (93%)
Дата пометки                             : UTC 2012-11-20 20:38:38

Аудио
Идентификатор                            : 2
Формат                                   : AAC
Формат/Информация                        : Advanced Audio Codec
Профиль формата                          : LC
Идентификатор кодека                     : 40
Продолжительность                        : 6 м. 5 с.
Вид битрейта                             : Переменный
Битрейт                                  : 192 Кбит/сек
Максимальный битрейт                     : 202 Кбит/сек
Каналы                                   : 2 канала
Расположение каналов                     : Front: L R
Частота                                  : 44,1 КГц
Метод сжатия                             : С потерями
Размер потока                            : 8,37 Мбайт (7%)
Заголовок                                : IsoMedia File Produced by Google, 5-11-2011
Дата кодирования                         : UTC 2012-11-20 20:38:38
Дата пометки                             : UTC 2012-11-20 20:38:38

Код:

Общее
Полное имя                               : F:Far Cry ExperienceFar Cry Experience - 5 [ RUS ].mp4
Формат                                   : MPEG-4
Профиль формата                          : Base Media / Version 2
Идентификатор кодека                     : mp42
Размер файла                             : 28,9 Мбайт
Продолжительность                        : 1 м. 59 с.
Режим общего битрейта                    : Переменный
Общий поток                              : 2024 Кбит/сек
Дата кодирования                         : UTC 2012-12-06 22:25:05
Дата пометки                             : UTC 2012-12-06 22:25:05
gsst                                     : 0
gstd                                     : 119768
gssd                                     : B4A7D6E04HH1356626581880849
gshh                                     : r4---sn-n8v7lnez.c.youtube.com

Видео
Идентификатор                            : 1
Формат                                   : AVC
Формат/Информация                        : Advanced Video Codec
Профиль формата                          : High@L3.1
Параметр CABAC формата                   : Да
Параметр ReFrames формата                : 1 кадр
Идентификатор кодека                     : avc1
Идентификатор кодека/Информация          : Advanced Video Coding
Продолжительность                        : 1 м. 59 с.
Битрейт                                  : 1830 Кбит/сек
Максимальный битрейт                     : 6095 Кбит/сек
Ширина                                   : 1280 пикселей
Высота                                   : 720 пикселей
Соотношение сторон                       : 16:9
Режим частоты кадров                     : Постоянный
Частота кадров                           : 29,970 кадров/сек
Цветовое пространство                    : YUV
Субдискретизация насыщенности            : 4:2:0
Битовая глубина                          : 8 бит
Тип развёртки                            : Прогрессивная
Бит/(Пиксели*Кадры)                      : 0.066
Размер потока                            : 26,1 Мбайт (90%)
Дата пометки                             : UTC 2012-12-06 22:25:05

Аудио
Идентификатор                            : 2
Формат                                   : AAC
Формат/Информация                        : Advanced Audio Codec
Профиль формата                          : LC
Идентификатор кодека                     : 40
Продолжительность                        : 1 м. 59 с.
Вид битрейта                             : Переменный
Битрейт                                  : 192 Кбит/сек
Максимальный битрейт                     : 201 Кбит/сек
Каналы                                   : 2 канала
Расположение каналов                     : Front: L R
Частота                                  : 44,1 КГц
Метод сжатия                             : С потерями
Размер потока                            : 2,74 Мбайт (9%)
Заголовок                                : IsoMedia File Produced by Google, 5-11-2011
Дата кодирования                         : UTC 2012-12-06 22:25:05
Дата пометки                             : UTC 2012-12-06 22:25:05

Код:

Общее
Полное имя                               : F:Far Cry ExperienceFar Cry Experience - 6 [RUS].mp4
Формат                                   : MPEG-4
Профиль формата                          : Base Media / Version 2
Идентификатор кодека                     : mp42
Размер файла                             : 23,2 Мбайт
Продолжительность                        : 1 м. 3 с.
Режим общего битрейта                    : Переменный
Общий поток                              : 3048 Кбит/сек
Дата кодирования                         : UTC 2012-12-06 22:51:23
Дата пометки                             : UTC 2012-12-06 22:51:23
gsst                                     : 0
gstd                                     : 63970
gssd                                     : B4A7D6E2BHH1356626685843455
gshh                                     : r11---sn-n8v7lne6.c.youtube.com

Видео
Идентификатор                            : 1
Формат                                   : AVC
Формат/Информация                        : Advanced Video Codec
Профиль формата                          : High@L3.1
Параметр CABAC формата                   : Да
Параметр ReFrames формата                : 1 кадр
Параметр GOP формата                     : M=1, N=60
Идентификатор кодека                     : avc1
Идентификатор кодека/Информация          : Advanced Video Coding
Продолжительность                        : 1 м. 3 с.
Битрейт                                  : 2853 Кбит/сек
Максимальный битрейт                     : 3797 Кбит/сек
Ширина                                   : 1280 пикселей
Высота                                   : 720 пикселей
Соотношение сторон                       : 16:9
Режим частоты кадров                     : Постоянный
Частота кадров                           : 29,970 кадров/сек
Цветовое пространство                    : YUV
Субдискретизация насыщенности            : 4:2:0
Битовая глубина                          : 8 бит
Тип развёртки                            : Прогрессивная
Бит/(Пиксели*Кадры)                      : 0.103
Размер потока                            : 21,7 Мбайт (94%)
Дата пометки                             : UTC 2012-12-06 22:51:23

Аудио
Идентификатор                            : 2
Формат                                   : AAC
Формат/Информация                        : Advanced Audio Codec
Профиль формата                          : LC
Идентификатор кодека                     : 40
Продолжительность                        : 1 м. 3 с.
Вид битрейта                             : Переменный
Битрейт                                  : 192 Кбит/сек
Максимальный битрейт                     : 201 Кбит/сек
Каналы                                   : 2 канала
Расположение каналов                     : Front: L R
Частота                                  : 44,1 КГц
Метод сжатия                             : С потерями
Размер потока                            : 1,46 Мбайт (6%)
Заголовок                                : IsoMedia File Produced by Google, 5-11-2011
Дата кодирования                         : UTC 2012-12-06 22:51:23
Дата пометки                             : UTC 2012-12-06 22:51:23

Код:

Общее
Полное имя                               : F:Far Cry ExperienceFar Cry Experience - 7 [ RUS ].mp4
Формат                                   : MPEG-4
Профиль формата                          : Base Media / Version 2
Идентификатор кодека                     : mp42
Размер файла                             : 38,2 Мбайт
Продолжительность                        : 2 м. 43 с.
Режим общего битрейта                    : Переменный
Общий поток                              : 1959 Кбит/сек
Дата кодирования                         : UTC 2012-12-06 23:06:36
Дата пометки                             : UTC 2012-12-06 23:06:36
gsst                                     : 0
gstd                                     : 163955
gssd                                     : B4A7D6E02HH1356626840596545
gshh                                     : r2---sn-n8v7lnez.c.youtube.com

Видео
Идентификатор                            : 1
Формат                                   : AVC
Формат/Информация                        : Advanced Video Codec
Профиль формата                          : High@L3.1
Параметр CABAC формата                   : Да
Параметр ReFrames формата                : 1 кадр
Идентификатор кодека                     : avc1
Идентификатор кодека/Информация          : Advanced Video Coding
Продолжительность                        : 2 м. 43 с.
Битрейт                                  : 1764 Кбит/сек
Максимальный битрейт                     : 5950 Кбит/сек
Ширина                                   : 1280 пикселей
Высота                                   : 720 пикселей
Соотношение сторон                       : 16:9
Режим частоты кадров                     : Постоянный
Частота кадров                           : 29,970 кадров/сек
Цветовое пространство                    : YUV
Субдискретизация насыщенности            : 4:2:0
Битовая глубина                          : 8 бит
Тип развёртки                            : Прогрессивная
Бит/(Пиксели*Кадры)                      : 0.064
Размер потока                            : 34,4 Мбайт (90%)
Дата пометки                             : UTC 2012-12-06 23:06:36

Аудио
Идентификатор                            : 2
Формат                                   : AAC
Формат/Информация                        : Advanced Audio Codec
Профиль формата                          : LC
Идентификатор кодека                     : 40
Продолжительность                        : 2 м. 43 с.
Вид битрейта                             : Переменный
Битрейт                                  : 192 Кбит/сек
Максимальный битрейт                     : 201 Кбит/сек
Каналы                                   : 2 канала
Расположение каналов                     : Front: L R
Частота                                  : 44,1 КГц
Метод сжатия                             : С потерями
Размер потока                            : 3,75 Мбайт (10%)
Заголовок                                : IsoMedia File Produced by Google, 5-11-2011
Дата кодирования                         : UTC 2012-12-06 23:06:36
Дата пометки                             : UTC 2012-12-06 23:06:36

Код:

Общее
Полное имя                               : F:Far Cry ExperienceFar Cry Experience - 8 [ RUS ].mp4
Формат                                   : MPEG-4
Профиль формата                          : Base Media / Version 2
Идентификатор кодека                     : mp42
Размер файла                             : 21,4 Мбайт
Продолжительность                        : 1 м. 39 с.
Режим общего битрейта                    : Переменный
Общий поток                              : 1797 Кбит/сек
Дата кодирования                         : UTC 2012-12-07 20:01:32
Дата пометки                             : UTC 2012-12-07 20:01:32
gsst                                     : 0
gstd                                     : 100053
gssd                                     : BADC23AAAHH1356627049198958
gshh                                     : r10---sn-n8v7lnee.c.youtube.com

Видео
Идентификатор                            : 1
Формат                                   : AVC
Формат/Информация                        : Advanced Video Codec
Профиль формата                          : High@L3.1
Параметр CABAC формата                   : Да
Параметр ReFrames формата                : 1 кадр
Идентификатор кодека                     : avc1
Идентификатор кодека/Информация          : Advanced Video Coding
Продолжительность                        : 1 м. 39 с.
Битрейт                                  : 1602 Кбит/сек
Максимальный битрейт                     : 6167 Кбит/сек
Ширина                                   : 1280 пикселей
Высота                                   : 720 пикселей
Соотношение сторон                       : 16:9
Режим частоты кадров                     : Постоянный
Частота кадров                           : 30,000 кадров/сек
Цветовое пространство                    : YUV
Субдискретизация насыщенности            : 4:2:0
Битовая глубина                          : 8 бит
Тип развёртки                            : Прогрессивная
Бит/(Пиксели*Кадры)                      : 0.058
Размер потока                            : 19,1 Мбайт (89%)
Дата пометки                             : UTC 2012-12-07 20:01:32

Аудио
Идентификатор                            : 2
Формат                                   : AAC
Формат/Информация                        : Advanced Audio Codec
Профиль формата                          : LC
Идентификатор кодека                     : 40
Продолжительность                        : 1 м. 39 с.
Вид битрейта                             : Переменный
Битрейт                                  : 192 Кбит/сек
Максимальный битрейт                     : 201 Кбит/сек
Каналы                                   : 2 канала
Расположение каналов                     : Front: L R
Частота                                  : 44,1 КГц
Метод сжатия                             : С потерями
Размер потока                            : 2,29 Мбайт (11%)
Заголовок                                : IsoMedia File Produced by Google, 5-11-2011
Дата кодирования                         : UTC 2012-12-07 20:01:32
Дата пометки                             : UTC 2012-12-07 20:01:32

Код:

Общее
Полное имя                               : F:Far Cry ExperienceFar Cry Experience - 9 [ RUS ].mp4
Формат                                   : MPEG-4
Профиль формата                          : Base Media / Version 2
Идентификатор кодека                     : mp42
Размер файла                             : 25,5 Мбайт
Продолжительность                        : 1 м. 58 с.
Режим общего битрейта                    : Переменный
Общий поток                              : 1811 Кбит/сек
Дата кодирования                         : UTC 2012-12-07 20:34:28
Дата пометки                             : UTC 2012-12-07 20:34:28
gsst                                     : 0
gstd                                     : 118281
gssd                                     : BADC23AE8HH1356627234729527
gshh                                     : r8---sn-n8v7lnes.c.youtube.com

Видео
Идентификатор                            : 1
Формат                                   : AVC
Формат/Информация                        : Advanced Video Codec
Профиль формата                          : High@L3.1
Параметр CABAC формата                   : Да
Параметр ReFrames формата                : 1 кадр
Параметр GOP формата                     : M=1, N=60
Идентификатор кодека                     : avc1
Идентификатор кодека/Информация          : Advanced Video Coding
Продолжительность                        : 1 м. 58 с.
Битрейт                                  : 1616 Кбит/сек
Максимальный битрейт                     : 5095 Кбит/сек
Ширина                                   : 1280 пикселей
Высота                                   : 720 пикселей
Соотношение сторон                       : 16:9
Режим частоты кадров                     : Постоянный
Частота кадров                           : 29,970 кадров/сек
Цветовое пространство                    : YUV
Субдискретизация насыщенности            : 4:2:0
Битовая глубина                          : 8 бит
Тип развёртки                            : Прогрессивная
Бит/(Пиксели*Кадры)                      : 0.059
Размер потока                            : 22,8 Мбайт (89%)
Дата пометки                             : UTC 2012-12-07 20:34:28

Аудио
Идентификатор                            : 2
Формат                                   : AAC
Формат/Информация                        : Advanced Audio Codec
Профиль формата                          : LC
Идентификатор кодека                     : 40
Продолжительность                        : 1 м. 58 с.
Вид битрейта                             : Переменный
Битрейт                                  : 192 Кбит/сек
Максимальный битрейт                     : 201 Кбит/сек
Каналы                                   : 2 канала
Расположение каналов                     : Front: L R
Частота                                  : 44,1 КГц
Метод сжатия                             : С потерями
Размер потока                            : 2,70 Мбайт (11%)
Заголовок                                : IsoMedia File Produced by Google, 5-11-2011
Дата кодирования                         : UTC 2012-12-07 20:34:28
Дата пометки                             : UTC 2012-12-07 20:34:28

Код:

Общее
Полное имя                               : F:Far Cry ExperienceFar Cry Experience - 10 [ RUS ].mp4
Формат                                   : MPEG-4
Профиль формата                          : Base Media / Version 2
Идентификатор кодека                     : mp42
Размер файла                             : 28,6 Мбайт
Продолжительность                        : 2 м. 37 с.
Режим общего битрейта                    : Переменный
Общий поток                              : 1526 Кбит/сек
Дата кодирования                         : UTC 2012-12-07 20:28:19
Дата пометки                             : UTC 2012-12-07 20:28:19
gsst                                     : 0
gstd                                     : 157175
gssd                                     : BADC23AE3HH1356627360882495
gshh                                     : r3---sn-n8v7lnes.c.youtube.com

Видео
Идентификатор                            : 1
Формат                                   : AVC
Формат/Информация                        : Advanced Video Codec
Профиль формата                          : High@L3.1
Параметр CABAC формата                   : Да
Параметр ReFrames формата                : 1 кадр
Идентификатор кодека                     : avc1
Идентификатор кодека/Информация          : Advanced Video Coding
Продолжительность                        : 2 м. 37 с.
Битрейт                                  : 1332 Кбит/сек
Максимальный битрейт                     : 4608 Кбит/сек
Ширина                                   : 1280 пикселей
Высота                                   : 720 пикселей
Соотношение сторон                       : 16:9
Режим частоты кадров                     : Постоянный
Частота кадров                           : 30,000 кадров/сек
Цветовое пространство                    : YUV
Субдискретизация насыщенности            : 4:2:0
Битовая глубина                          : 8 бит
Тип развёртки                            : Прогрессивная
Бит/(Пиксели*Кадры)                      : 0.048
Размер потока                            : 24,9 Мбайт (87%)
Дата пометки                             : UTC 2012-12-07 20:28:19

Аудио
Идентификатор                            : 2
Формат                                   : AAC
Формат/Информация                        : Advanced Audio Codec
Профиль формата                          : LC
Идентификатор кодека                     : 40
Продолжительность                        : 2 м. 37 с.
Вид битрейта                             : Переменный
Битрейт                                  : 192 Кбит/сек
Максимальный битрейт                     : 201 Кбит/сек
Каналы                                   : 2 канала
Расположение каналов                     : Front: L R
Частота                                  : 44,1 КГц
Метод сжатия                             : С потерями
Размер потока                            : 3,59 Мбайт (13%)
Заголовок                                : IsoMedia File Produced by Google, 5-11-2011
Дата кодирования                         : UTC 2012-12-07 20:28:19
Дата пометки                             : UTC 2012-12-07 20:28:19

Код:

Общее
Полное имя                               : F:Far Cry ExperienceFar Cry Experience - 11 [ RUS ].mp4
Формат                                   : MPEG-4
Профиль формата                          : Base Media / Version 2
Идентификатор кодека                     : mp42
Размер файла                             : 28,9 Мбайт
Продолжительность                        : 2 м. 15 с.
Режим общего битрейта                    : Переменный
Общий поток                              : 1786 Кбит/сек
Дата кодирования                         : UTC 2012-12-07 20:39:05
Дата пометки                             : UTC 2012-12-07 20:39:05
gsst                                     : 0
gstd                                     : 135905
gssd                                     : BADC23ACCHH1356627543080043
gshh                                     : r12---sn-n8v7lnel.c.youtube.com

Видео
Идентификатор                            : 1
Формат                                   : AVC
Формат/Информация                        : Advanced Video Codec
Профиль формата                          : High@L3.1
Параметр CABAC формата                   : Да
Параметр ReFrames формата                : 1 кадр
Идентификатор кодека                     : avc1
Идентификатор кодека/Информация          : Advanced Video Coding
Продолжительность                        : 2 м. 15 с.
Битрейт                                  : 1592 Кбит/сек
Максимальный битрейт                     : 5154 Кбит/сек
Ширина                                   : 1280 пикселей
Высота                                   : 720 пикселей
Соотношение сторон                       : 16:9
Режим частоты кадров                     : Постоянный
Частота кадров                           : 29,970 кадров/сек
Цветовое пространство                    : YUV
Субдискретизация насыщенности            : 4:2:0
Битовая глубина                          : 8 бит
Тип развёртки                            : Прогрессивная
Бит/(Пиксели*Кадры)                      : 0.058
Размер потока                            : 25,8 Мбайт (89%)
Дата пометки                             : UTC 2012-12-07 20:39:05

Аудио
Идентификатор                            : 2
Формат                                   : AAC
Формат/Информация                        : Advanced Audio Codec
Профиль формата                          : LC
Идентификатор кодека                     : 40
Продолжительность                        : 2 м. 15 с.
Вид битрейта                             : Переменный
Битрейт                                  : 192 Кбит/сек
Максимальный битрейт                     : 201 Кбит/сек
Каналы                                   : 2 канала
Расположение каналов                     : Front: L R
Частота                                  : 44,1 КГц
Метод сжатия                             : С потерями
Размер потока                            : 3,11 Мбайт (11%)
Заголовок                                : IsoMedia File Produced by Google, 5-11-2011
Дата кодирования                         : UTC 2012-12-07 20:39:05
Дата пометки                             : UTC 2012-12-07 20:39:05

Код:

Общее
Полное имя                               : F:Far Cry ExperienceFar Cry Experience - 12 [ RUS ].mp4
Формат                                   : MPEG-4
Профиль формата                          : Base Media / Version 2
Идентификатор кодека                     : mp42
Размер файла                             : 45,6 Мбайт
Продолжительность                        : 3 м. 26 с.
Режим общего битрейта                    : Переменный
Общий поток                              : 1856 Кбит/сек
Дата кодирования                         : UTC 2012-12-06 22:01:24
Дата пометки                             : UTC 2012-12-06 22:01:24
gsst                                     : 0
gstd                                     : 206308
gssd                                     : B4A7D6E02HH1356448612270679
gshh                                     : r2---sn-n8v7lnez.c.youtube.com

Видео
Идентификатор                            : 1
Формат                                   : AVC
Формат/Информация                        : Advanced Video Codec
Профиль формата                          : High@L3.1
Параметр CABAC формата                   : Да
Параметр ReFrames формата                : 1 кадр
Идентификатор кодека                     : avc1
Идентификатор кодека/Информация          : Advanced Video Coding
Продолжительность                        : 3 м. 26 с.
Битрейт                                  : 1661 Кбит/сек
Максимальный битрейт                     : 7062 Кбит/сек
Ширина                                   : 1280 пикселей
Высота                                   : 720 пикселей
Соотношение сторон                       : 16:9
Режим частоты кадров                     : Постоянный
Частота кадров                           : 29,970 кадров/сек
Цветовое пространство                    : YUV
Субдискретизация насыщенности            : 4:2:0
Битовая глубина                          : 8 бит
Тип развёртки                            : Прогрессивная
Бит/(Пиксели*Кадры)                      : 0.060
Размер потока                            : 40,8 Мбайт (90%)
Дата пометки                             : UTC 2012-12-06 22:01:24

Аудио
Идентификатор                            : 2
Формат                                   : AAC
Формат/Информация                        : Advanced Audio Codec
Профиль формата                          : LC
Идентификатор кодека                     : 40
Продолжительность                        : 3 м. 26 с.
Вид битрейта                             : Переменный
Битрейт                                  : 192 Кбит/сек
Максимальный битрейт                     : 202 Кбит/сек
Каналы                                   : 2 канала
Расположение каналов                     : Front: L R
Частота                                  : 44,1 КГц
Метод сжатия                             : С потерями
Размер потока                            : 4,72 Мбайт (10%)
Заголовок                                : IsoMedia File Produced by Google, 5-11-2011
Дата кодирования                         : UTC 2012-12-06 22:01:24
Дата пометки                             : UTC 2012-12-06 22:01:24

pb.wtf



Скачать Far Cry 3. Выживание через торрент http://i52.fastpic.ru/big/2012/1231/5a/8c5d1415d2e0e0e02317f1ff3799895a.jpg Скачать фильм Far Cry 3. Выживание через торрент бесплантно в хорошем качестве Описание: Кристофер Минц-Пласс приезжает на остров Рук и его путешествие на райский остров превращается в ад по мере столкновения с ... 9.4 10 8
Info! Золотая раздача, скачанное не засчитывается.
Торрент: Зарегистрирован [2012-12-31 17:44] · скачан: 250 раз
Статус: √ проверено
Размер: 658 MB
Как cкачать? Как скачать Far Cry 3. Выживание через торрент | UTorrent

28-11-2019 20:33  

Отключить всю рекламу на сайте

01-01-2013 11:49 Far Cry 3. Выживание Скачать торрент  

Офигенное конечно сходство.Прям вылетый Ваасpb.wtf



06-01-2013 21:57 Far Cry 3. Выживание Скачать торрент  

супер :good: , еще бы полнометражный фильм замутили, с тем же Ваасом в главной роли, то слов бы тогда не было
P.S. автору - перевод тут Одноголосый (Профессиональный), поправьpb.wtf



20-01-2013 00:06 Far Cry 3. Выживание Скачать торрент  

ZetMan123 писал(а):

ZetMan123

Ясен пень.По нему и создавали персонажа в игре.pb.wtf



18-02-2013 12:07 Far Cry 3. Выживание Скачать торрент  

:troll:pb.wtf



    Дорогой пользователь! Огромная просьба, поблагодарите релизера, оцените раздачу и оставьте свои комментарий, если Вы скачали Far Cry 3. Выживание через торрент бесплатно! Внесите свою лепту в развитие PiratBit!
    Комментировать посты могут только пользователи прошедшие не сложную регистрацию
    Показать сообщения:    

    Far Cry 3. Выживание через торрент
    Скачать бесплатно Far Cry 3. Выживание
    Far Cry 3. Выживание скачать торрент
    Far Cry 3. Выживание смотреть онлайн
    Cкачать фильм Far Cry 3. Выживание бесплатно
    Far Cry 3. Выживание скачать торрент в хорошем качестве
    Far Cry 3. Выживание смотреть онлайн бесплатно в хорошем качестве


    Вы не можете начинать темы
    Вы не можете отвечать на сообщения
    Вы не можете редактировать свои сообщения
    Вы не можете удалять свои сообщения
    Вы не можете голосовать в опросах
    Вы не можете прикреплять файлы к сообщениям
    Вы можете скачивать файлы