Ссылка на приватное зеркало нашего сайта всего за 1$. Внимание количество ограничено!!!

2 сезон

iTunes

1 сезон

1

2 сезон

2 сезон

iTunes

1 сезон

RePack

30

Ultimate

ВАЖНО

ИГРА 18+

pack

RePack

MK11
pack

Забери бонус

RePack

jed

!!Акция!!

Alien_Rage

RePack

fifa19

RePack

Assassins Creed: Odyssey

RePack

NEED FOR SPEED™ PAYBACK

4 сезон

9 сезон

Бесстыжие 9 сезон

Все сериалы

все сериалы на PB.wtf

RePack

FAR CRY 5
  

День Додо / Дай Додо (Ирина Гедрович) [2012 г., мелодрама, комедия, TVRip] pb.wtf

День Додо через торрент pb.wtf

Размер: 967 MB | Добавлен: 7 лет 11 мес. назад | Торрент скачан:291 раз
Скачать  

01-01-2013 08:00 День Додо Скачать торрент  

День Додо / Дай Додо

Год выпуска: 2012
Страна: Россия
Жанр: мелодрама, комедия
Продолжительность: 01:22:48
Перевод: Не требуется

Режиссер: Ирина Гедрович

Премьера в России: 31.12.2012

Мировой рейтинг IMDB


В ролях: Владимир Стержаков, Дарья Сагалова, Александр Бобров, Андрей Федорцов, Валерий Гаркалин, Семён Стругачев, Вилле Хаапасало, Альберт Филозов, Александр Леньков, Ольга Волкова

Описание: Весь год сотрудники музея трудились не покладая рук: составляли картотеки, протирали чучела, собирали по кусочкам историческое наследие. В канун Нового года им, конечно, хотелось настоящего праздника, но научные работники вниманием не избалованы и в средствах стеснены.Когда надежда на яркое торжество почти умерла, в музейную дверь постучали. Нежданные гости внезапно предложили устроить сотрудникам корпоратив с угощением, выпивкой и светомузыкой. Обалдевшие от радости музейщики даже предположить не могли, что меценаты — гангстеры, нанятые заокеанским коллекционером, а цель их — единственное сохранившееся чучело птицы додо.План бандитов был идеален, но они не учли одного: помимо хилых ботаников в музее работал охранник Гена. Он давно мечтал стать героем и произвести впечатление на экскурсовода Машу, а это значит, что у злодеев — ни единого шанса!

Качество: TVRip
Формат: AVI
Видео кодек: XviD
Аудио кодек: MP3
Видео: Xvid,1494кбрs,720x400(16:9) в 25 000 fps
Аудио#1: МР3,128кбрs,48.0 KHz, 2 каналов


Полное имя : D:торентыДень Додо.avi
Формат : AVI
Формат/Информация : Audio Video Interleave
Размер файла : 967 MiB
Продолжительность : 1h 22mn
Общий поток : 1 632 Kbps
Программа кодирования : VirtualDubMod 1.5.10.2 (build 2540/release)
Библиотека кодирования : VirtualDub build 32507/release

Video
Идентификатор : 0
Формат : MPEG-4 Visual
Профиль формата : Advanced Simple@L5
Параметр BVOP формата : 2
Параметр QPel формата : No
Параметр GMC формата : No warppoints
Параметр матрицы формата : Default (MPEG)
Идентификатор кодека : XVID
Идентификатор кодека/Подсказка : XviD
Продолжительность : 1h 22mn
Битрейт : 1 494 Kbps
Ширина : 720 pixels
Высота : 400 pixels
Соотношение сторон : 16:9
Частота кадров : 25.000 fps
Цветовое пространство : YUV
Субдискретизация насыщенности : 4:2:0
Битовая глубина : 8 bits
Тип развёртки : Progressive
Метод сжатия : Lossy
Бит/(Пиксели*Кадры) : 0.208
Размер потока : 885 MiB (92%)
Библиотека кодирования : XviD 64

Audio
Идентификатор : 1
Формат : MPEG Audio
Версия формата : Version 1
Профиль формата : Layer 3
Режим : Joint stereo
Идентификатор кодека : 55
Идентификатор кодека/Подсказка : MP3
Продолжительность : 1h 22mn
Вид битрейта : Constant
Битрейт : 128 Kbps
Каналы : 2 channels
Частота : 48.0 KHz
Метод сжатия : Lossy
Размер потока : 75.8 MiB (8%)
Выравнивание : Aligned on interleaves
Продолжительность промежутка : 40 ms (1.00 video frame)
Время предзагрузки промежутка : 504 ms


День Додо скачать торрент


pb.wtf



Скачать День Додо через торрент http://pic.kartinco.top/images/1/m5awtrxvzp.jpg Скачать фильм День Додо через торрент бесплантно в хорошем качестве Описание: Весь год сотрудники музея трудились не покладая рук: составляли картотеки, протирали чучела, собирали по кусочкам историческое ... 5 10 1
Info! Золотая раздача, скачанное не засчитывается.
Торрент: Зарегистрирован [2013-01-01 08:00] · скачан: 291 раз
Статус: √ проверено
Размер: 967 MB
Как cкачать? Как скачать День Додо через торрент | qTorrent

28-11-2019 20:33  

Отключить всю рекламу на сайте

    Дорогой пользователь! Огромная просьба, поблагодарите релизера, оцените раздачу и оставьте свои комментарий, если Вы скачали День Додо через торрент бесплатно! Внесите свою лепту в развитие PiratBit!
    Комментировать посты могут только пользователи прошедшие не сложную регистрацию
    Показать сообщения:    

    День Додо через торрент
    Скачать бесплатно День Додо
    День Додо скачать торрент
    День Додо смотреть онлайн
    Cкачать фильм День Додо бесплатно
    День Додо скачать торрент в хорошем качестве
    День Додо смотреть онлайн бесплатно в хорошем качестве


    Вы не можете начинать темы
    Вы не можете отвечать на сообщения
    Вы не можете редактировать свои сообщения
    Вы не можете удалять свои сообщения
    Вы не можете голосовать в опросах
    Вы не можете прикреплять файлы к сообщениям
    Вы можете скачивать файлы