1 сезон

1 сезон

iTunes

1

КиноПоиск HD

Кинопоиск HD

iTunes

13

1 сезон

RePack

30

Новинка

ВАЖНО

ИГРА 18+

pack

RePack

MK11
pack

Легкие деньги

RePack

jed

RePack

fifa19

RePack

RDR2

RePack

NEED FOR SPEED™ PAYBACK

4 сезон

9 сезон

Бесстыжие 9 сезон

Все сериалы

все сериалы на PB.wtf

RePack

FAR CRY 5
  
Magnet ссылка

Стеклянный дом / The Glass House (Дэниэл Сакхейм) [2001 г., триллер, DVDRip, MVO] pb.wtf

Стеклянный дом через торрент pb.wtf

Размер: 2.05 GB | Добавлен: 8 лет 3 мес. назад | Торрент скачан:109 раз
Скачать  

01-01-2013 08:31 Стеклянный дом Скачать торрент  

Стеклянный дом / The Glass House

Год выпуска: 2001
Страна: США
Жанр: триллер
Продолжительность: 01:41:57
Перевод: Профессиональный многоголосый
Субтитры: Отсутствуют

Режиссер: Дэниэл Сакхейм
Продюссер: Нил Х. Мориц, Хезер Зиген, Майкл И. Рахмил
Сценарий: Уэсли Стрик

Мировой рейтинг IMDB 5.70 (17 524)


В ролях: Лили Собески, Дайан Лэйн, Стеллан Скарсгард, Брюс Дерн, Кэти Бейкер, Тревор Морган, Крис Нот, Майкл О’Киф, Вито Руджинис, Гэвин О’Коннор

Описание: После гибели родителей подростков Руби и Ретта взяли к себе жить лучшие друзья покойных — бездетные Эрин и Терри Глассы, хозяева самого роскошного особняка в Малибу. Причудливое здание со стеклянными стенами отныне должно было стать им домом. Но не стало. Очень скоро внимательная Руби открывает, что этот шедевр архитектуры скрывает в себе некую страшную тайну. И что их приемные папа с мамой — вовсе не такие добрые и симпатичные люди, какими кажутся.В этих стенах из стекла бродит смерть. Стоит промедлить — и она настигнет Руби и Ретта, как настигла их родителей. Единственный способ избежать гибели — раскрыть зловещий секрет, что прячут в своих холодных сердцах такие милые на вид Глассы...

Качество: DVDRip
Формат: AVI
Видео кодек: XviD
Аудио кодек: AC3
Видео: 720x304 (2.37:1), 25 fps, XviD build 50 ~2386 kbps avg, 0.45 bit/pixel
Аудио#1: 48 kHz, AC3 Dolby Digital, 3/2 (L,C,R,l,r) + LFE ch, ~384 kbps
скриншот   скриншот   скриншот   скриншот   скриншот  

Общее
Полное имя : F:ЗакачкиSteklynnyiy.Dom.2001.DVDRip.avi
Формат : AVI
Формат/Информация : Audio Video Interleave
Профиль формата : OpenDML
Размер файла : 2,05 Гбайт
Продолжительность : 1 ч. 41 м.
Общий поток : 2578 Кбит/сек
Программа кодирования : VirtualDubMod 1.5.10.3 | www.virtualdub-fr.org || (build 2550/release)
Библиотека кодирования : VirtualDubMod build 2550/release

Видео
Идентификатор : 0
Формат : MPEG-4 Visual
Профиль формата : Advanced Simple@L5
Параметр BVOP формата : 2
Параметр QPel формата : Нет
Параметр GMC формата : Без точки перехода
Параметр матрицы формата : Default (MPEG)
Идентификатор кодека : XVID
Идентификатор кодека/Подсказка : XviD
Продолжительность : 1 ч. 41 м.
Битрейт : 2386 Кбит/сек
Ширина : 720 пикселей
Высота : 304 пикселя
Соотношение сторон : 2,35:1
Частота кадров : 25,000 кадров/сек
Цветовое пространство : YUV
Субдискретизация насыщенности : 4:2:0
Битовая глубина : 8 бит
Тип развёртки : Прогрессивная
Метод сжатия : С потерями
Бит/(Пиксели*Кадры) : 0.453
Размер потока : 1,77 Гбайт (86%)
Библиотека кодирования : XviD 1.2.1 (UTC 2008-12-04)

Аудио
Идентификатор : 1
Формат : AC-3
Формат/Информация : Audio Coding 3
Расширение режима : CM (complete main)
Идентификатор кодека : 2000
Продолжительность : 1 ч. 41 м.
Вид битрейта : Постоянный
Битрейт : 384 Кбит/сек
Каналы : 6 каналов
Расположение каналов : Front: L C R, Side: L R, LFE
Частота : 48,0 КГц
Битовая глубина : 16 бит
Метод сжатия : С потерями
Размер потока : 280 Мбайт (13%)
Выравнивание : Разделение по промежуткам
Продолжительность промежутка : 40 мс. (1,00 видеокадр)
Время предзагрузки промежутка : 500 мс.


Стеклянный дом скачать торрент


pb.wtf



Скачать Стеклянный дом через торрент http://i53.fastpic.ru/big/2013/0101/a1/760106d5ba19e59d53d459bb7eecf6a1.jpg Скачать фильм Стеклянный дом через торрент бесплантно в хорошем качестве Описание: После гибели родителей подростков Руби и Ретта взяли к себе жить лучшие друзья покойных — бездетные Эрин и Терри Глассы, хозяева ... 9.3 10 3
Info! Золотая раздача, скачанное не засчитывается.
Торрент: Зарегистрирован [2013-01-01 08:31] · скачан: 109 раз
Статус: √ проверено
Размер: 2.05 GB
Как cкачать? Как скачать Стеклянный дом через торрент | UTorrent

% Раздел Тема Автор DL S | L
Фильмы 2001-2005 [ 1.42 GB ] Стеклянный Дом / The Glass House [2001 WEB-DLRip] [MVO] killermax2013 Скачать
1 | 0

28-11-2019 20:33  

Отключить всю рекламу на сайте

    Дорогой пользователь! Огромная просьба, поблагодарите релизера, оцените раздачу и оставьте свои комментарий, если Вы скачали Стеклянный дом через торрент бесплатно! Внесите свою лепту в развитие PiratBit!
    Комментировать посты могут только пользователи прошедшие не сложную регистрацию
    Показать сообщения:    

    Стеклянный дом через торрент
    Скачать бесплатно Стеклянный дом
    Стеклянный дом скачать торрент
    Стеклянный дом смотреть онлайн
    Cкачать фильм Стеклянный дом бесплатно
    Стеклянный дом скачать торрент в хорошем качестве
    Стеклянный дом смотреть онлайн бесплатно в хорошем качестве


    Вы не можете начинать темы
    Вы не можете отвечать на сообщения
    Вы не можете редактировать свои сообщения
    Вы не можете удалять свои сообщения
    Вы не можете голосовать в опросах
    Вы не можете прикреплять файлы к сообщениям
    Вы можете скачивать файлы