1 сезон

1 сезон

iTunes

1

КиноПоиск HD

Кинопоиск HD

iTunes

13

1 сезон

RePack

30

Новинка

ВАЖНО

ИГРА 18+

pack

RePack

MK11
pack

Легкие деньги

RePack

jed

RePack

fifa19

RePack

RDR2

RePack

NEED FOR SPEED™ PAYBACK

4 сезон

9 сезон

Бесстыжие 9 сезон

Все сериалы

все сериалы на PB.wtf

RePack

FAR CRY 5
  
Magnet ссылка

Одиннадцать друзей Оушена / Ocean's Eleven (Стивен Содерберг) [2001 г., триллер, криминал, BDRip, DUB, лицензия] pb.wtf

Одиннадцать друзей Оушена через торрент pb.wtf

Размер: 1.45 GB | Добавлен: 8 лет 3 мес. назад | Торрент скачан:630 раз
Скачать  

01-01-2013 15:01 Одиннадцать друзей Оушена Скачать торрент  

Одиннадцать друзей Оушена / Ocean's Eleven

Год выпуска: 2001
Страна: США
Жанр: триллер, криминал
Продолжительность: 01:56:00
Перевод: Дубляж, Лицензия

Режиссер: Стивен Содерберг
Продюссер: Джерри Вайнтрауб, Брюс Берман, Сьюзэн Экинс
Сценарий: Гарри Браун, Чарльз Ледерер, Тед Гриффин

Бюджет: $85 000 000
маркетинг:$30 000 000
сборы в США :$183 417 150
сборы в мире :+ $267 300 000 = $450 717 150
сборы в России:$3 200 000
Премьера в мире: 5 декабря 2001
релиз на Blu-Ray :2 ноября 2010, «Юниверсал Пикчерс Рус»
релиз на DVD :10 марта 2011, «CP-Digital», ...

Мировой рейтинг IMDB 7.70 (230 469)


В ролях: Джордж Клуни, Брэд Питт, Мэтт Дэймон, Джулия Робертс, Энди Гарсиа, Кейси Аффлек, Скотт Каан, Эллиот Гулд, Берни Мак, Дон Чидл, Владимир Вихров, Всеволод Кузнецов, Борис Шувалов, Марианна Шульц, Алексей Рязанцев

Описание: После выхода из тюрьмы вора Дэнни Оушена не проходит и 24 часов, а он уже планирует организовать самое сложное ограбление казино в истории. Он хочет украсть 150 млн. американских долларов из трех самых преуспевающих казино Лас-Вегаса.Все эти казино принадлежат элегантному и в то же время жестокому дельцу Терри Бенедикту, который только и мечтает о том, как встретится с бывшей женой Дэнни Оушена — Тесс. Возможно это только совпадение? А может быть это повод?Всего за одну ночь Дэнни подбирает команду из одиннадцати «специалистов», способных совершить эту дерзкую кражу. В команде Оушена оказываются первоклассный карточный шулер, молодой искусный вор-карманник и гениальный разрушитель.Чтобы совершить этот безумный и сложный грабеж Оушену придется рисковать своей жизнью, однако его почти невыполнимый план может все-таки удастся..

Качество: BDRip
Формат: AVI
Видео кодек: XviD
Аудио кодек: AC3
Видео: Xvid, 1578кбрs,720x304(2:35.1) в 23 976fps
Аудио#1: AC-3,192кбрs,48.0 KHz, 16 bits,2 каналов






Полное имя : D:oceans.eleven.2001.AC3.XviD.OpenSharing.BDRip.avi
Формат : AVI
Формат/Информация : Audio Video Interleave
Размер файла : 1.45 GiB
Продолжительность : 1h 56mn
Общий поток : 1 779 Kbps
Название фильма : 11 друзей Оушена (2001) BDRip
Режиссёр : b1nd
Программа кодирования : VirtualDubMod 1.5.10.2 (build 2542/release)
Правообладатель : OpenSharing Team

Video
Идентификатор : 0
Формат : MPEG-4 Visual
Профиль формата : Advanced Simple@L5
Параметр BVOP формата : 2
Параметр QPel формата : No
Параметр GMC формата : No warppoints
Параметр матрицы формата : Custom
Идентификатор кодека : XVID
Идентификатор кодека/Подсказка : XviD
Продолжительность : 1h 56mn
Битрейт : 1 578 Kbps
Ширина : 720 pixels
Высота : 304 pixels
Соотношение сторон : 2.35:1
Частота кадров : 23.976 fps
Цветовое пространство : YUV
Субдискретизация насыщенности : 4:2:0
Битовая глубина : 8 bits
Тип развёртки : Progressive
Метод сжатия : Lossy
Бит/(Пиксели*Кадры) : 0.301
Размер потока : 1.28 GiB (89%)
Библиотека кодирования : XviD 58

Audio
Идентификатор : 1
Формат : AC-3
Формат/Информация : Audio Coding 3
Расширение режима : CM (complete main)
Параметр Endianness формата : Big
Идентификатор кодека : 2000
Продолжительность : 1h 56mn
Вид битрейта : Constant
Битрейт : 192 Kbps
Каналы : 2 channels
Расположение каналов : Front: L R
Частота : 48.0 KHz
Битовая глубина : 16 bits
Метод сжатия : Lossy
Размер потока : 160 MiB (11%)
Выравнивание : Split accross interleaves
Продолжительность промежутка : 42 ms (1.00 video frame)
Время предзагрузки промежутка : 500 ms


Одиннадцать друзей Оушена скачать торрент


pb.wtf



Скачать Одиннадцать друзей Оушена через торрент https://pic.kartinco.top/images/1/o2fiajbv9k.jpg Скачать фильм Одиннадцать друзей Оушена через торрент бесплантно в хорошем качестве Описание: После выхода из тюрьмы вора Дэнни Оушена не проходит и 24 часов, а он уже планирует организовать самое сложное ограбление казино ... 9.8 10 14
Info! Золотая раздача, скачанное не засчитывается.
Торрент: Зарегистрирован [2013-01-01 15:01] · скачан: 630 раз
Статус: √ проверено
Размер: 1.45 GB
Как cкачать? Как скачать Одиннадцать друзей Оушена через торрент | UTorrent

28-11-2019 20:33  

Отключить всю рекламу на сайте

    Дорогой пользователь! Огромная просьба, поблагодарите релизера, оцените раздачу и оставьте свои комментарий, если Вы скачали Одиннадцать друзей Оушена через торрент бесплатно! Внесите свою лепту в развитие PiratBit!
    Комментировать посты могут только пользователи прошедшие не сложную регистрацию
    Показать сообщения:    

    Одиннадцать друзей Оушена через торрент
    Скачать бесплатно Одиннадцать друзей Оушена
    Одиннадцать друзей Оушена скачать торрент
    Одиннадцать друзей Оушена смотреть онлайн
    Cкачать фильм Одиннадцать друзей Оушена бесплатно
    Одиннадцать друзей Оушена скачать торрент в хорошем качестве
    Одиннадцать друзей Оушена смотреть онлайн бесплатно в хорошем качестве


    Вы не можете начинать темы
    Вы не можете отвечать на сообщения
    Вы не можете редактировать свои сообщения
    Вы не можете удалять свои сообщения
    Вы не можете голосовать в опросах
    Вы не можете прикреплять файлы к сообщениям
    Вы можете скачивать файлы