1 сезон

1 сезон

iTunes

1

КиноПоиск HD

Кинопоиск HD

iTunes

13

1 сезон

RePack

30

Новинка

ВАЖНО

ИГРА 18+

pack

RePack

MK11
pack

Легкие деньги

RePack

jed

RePack

fifa19

RePack

RDR2

RePack

NEED FOR SPEED™ PAYBACK

4 сезон

9 сезон

Бесстыжие 9 сезон

Все сериалы

все сериалы на PB.wtf

RePack

FAR CRY 5
  
Magnet ссылка

Стюарт Литтл 2 / Stuart Little 2 (Роб Минкофф) [2002 г., мультфильм, фэнтези, комедия, приключения, семейный, DVDRip, DUB, лицензия] pb.wtf

Стюарт Литтл 2 через торрент pb.wtf

Размер: 1.37 GB | Добавлен: 8 лет 3 мес. назад | Торрент скачан:78 раз
Скачать  

02-01-2013 09:35 Стюарт Литтл 2 Скачать торрент  

Стюарт Литтл 2 / Stuart Little 2

Год выпуска: 2002
Страна: США
Жанр: мультфильм, фэнтези, комедия, приключения, семейный
Продолжительность: 01:17:00
Перевод: Дубляж, Лицензия

Режиссер: Роб Минкофф
Продюссер: Джейсон Кларк, Люси Фишер, Гэйл Лион
Сценарий: Брюс Джоэл Рубин, Е.Б. Уайт, Дуглас Уик

Бюджет: $120 000 000
Премьера в мире: 14 июля 2002
релиз на Blu-Ray :9 августа 2011, «Columbia/Sony»
релиз на DVD:27 мая 2010, «Columbia/Sony

Мировой рейтинг IMDB 5.40 (18 195)


В ролях: Майкл Дж. Фокс, Джина Дэвис, Хью Лори, Джонатан Липники, Анна Хельк, Эшли Хельк, Натан Лейн, Мелани Гриффит, Джеймс Вудс, Стив Зан, Олег Куликович, Лариса Луппиан, Валерий Кухарешин, Сергей Паршин, Ксения Бржезовская

Описание: Стюарт теперь учится в школе, строит модели самолетов и играет в футбольной команде. Но все меняется, когда судьба сводит его с канарейкой по имени Маргало. Они становятся друзьями, и птица рассказывает Стюарту о злобном Соколе, который терроризирует ее.И вдруг вскоре после этого Маргало исчезает. Стюарт и кот Снежок отправляются на отчаянные поиски своего нового друга через весь Нью-Йорк.

Качество: DVDRip
Формат: AVI
Видео кодек: XviD
Аудио кодек: AC3
Видео: Xvid,2146кбрs,720x384(1.85:1) в 25 000 fps
Аудио#1: AC-3,448кбрs,48.0 KHz, 16 bits,6 каналов






Полное имя : D:торентыStjuart.Litl.2.2002.XviD.DVDRip..avi
Формат : AVI
Формат/Информация : Audio Video Interleave
Размер файла : 1.37 GiB
Продолжительность : 1h 15mn
Общий поток : 2 601 Kbps
Программа кодирования : VirtualDubMod 1.5.4.1 (build 2178/release)
Библиотека кодирования : VirtualDubMod build 2178/release

Video
Идентификатор : 0
Формат : MPEG-4 Visual
Профиль формата : Advanced Simple@L5
Параметр BVOP формата : 1
Параметр QPel формата : No
Параметр GMC формата : No warppoints
Параметр матрицы формата : Custom
Идентификатор кодека : XVID
Идентификатор кодека/Подсказка : XviD
Продолжительность : 1h 15mn
Битрейт : 2 146 Kbps
Ширина : 720 pixels
Высота : 384 pixels
Соотношение сторон : 1.85:1
Частота кадров : 25.000 fps
Цветовое пространство : YUV
Субдискретизация насыщенности : 4:2:0
Битовая глубина : 8 bits
Тип развёртки : Progressive
Метод сжатия : Lossy
Бит/(Пиксели*Кадры) : 0.311
Размер потока : 1.13 GiB (83%)
Библиотека кодирования : XviD 1.2.0.dev47 (UTC 2006-11-01)

Audio
Идентификатор : 1
Формат : AC-3
Формат/Информация : Audio Coding 3
Расширение режима : CM (complete main)
Параметр Endianness формата : Big
Идентификатор кодека : 2000
Продолжительность : 1h 15mn
Вид битрейта : Constant
Битрейт : 448 Kbps
Каналы : 6 channels
Расположение каналов : Front: L C R, Side: L R, LFE
Частота : 48.0 KHz
Битовая глубина : 16 bits
Метод сжатия : Lossy
Размер потока : 241 MiB (17%)
Выравнивание : Split accross interleaves
Продолжительность промежутка : 96 ms (2.40 video frames)
Время предзагрузки промежутка : 96 ms
Язык : Russian


Стюарт Литтл 2 скачать торрент


pb.wtf



Скачать Стюарт Литтл 2 через торрент https://pic.kartinco.top/images/1/n6se4sd1e8.jpg Скачать фильм Стюарт Литтл 2 через торрент бесплантно в хорошем качестве Описание: Стюарт теперь учится в школе, строит модели самолетов и играет в футбольной команде. Но все меняется, когда судьба сводит его с ... 10 10 4
Info! Золотая раздача, скачанное не засчитывается.
Торрент: Зарегистрирован [2013-01-02 09:35] · скачан: 78 раз
Статус: √ проверено
Размер: 1.37 GB
Как cкачать? Как скачать Стюарт Литтл 2 через торрент | UTorrent

% Раздел Тема Автор DL S | L
Фильмы 2001-2005 [ 1.46 GB ] Стюарт Литтл 2 / Stuart Little 2 [2002 DVDRip] chaga2009 Скачать
1 | 0

28-11-2019 20:33  

Отключить всю рекламу на сайте

    Дорогой пользователь! Огромная просьба, поблагодарите релизера, оцените раздачу и оставьте свои комментарий, если Вы скачали Стюарт Литтл 2 через торрент бесплатно! Внесите свою лепту в развитие PiratBit!
    Комментировать посты могут только пользователи прошедшие не сложную регистрацию
    Показать сообщения:    

    Стюарт Литтл 2 через торрент
    Скачать бесплатно Стюарт Литтл 2
    Стюарт Литтл 2 скачать торрент
    Стюарт Литтл 2 смотреть онлайн
    Cкачать фильм Стюарт Литтл 2 бесплатно
    Стюарт Литтл 2 скачать торрент в хорошем качестве
    Стюарт Литтл 2 смотреть онлайн бесплатно в хорошем качестве


    Вы не можете начинать темы
    Вы не можете отвечать на сообщения
    Вы не можете редактировать свои сообщения
    Вы не можете удалять свои сообщения
    Вы не можете голосовать в опросах
    Вы не можете прикреплять файлы к сообщениям
    Вы можете скачивать файлы