Ссылка на приватное зеркало нашего сайта всего за 1$. Внимание количество ограничено!!!

2 сезон

iTunes

1 сезон

1

iTunes

iTunes

iTunes

1 сезон

RePack

30

ИГРА 18+

pack

ВАЖНО

!!Акция!!

Alien_RageХит недели

RePack

MK11
pack

Забери бонус

RePack

jed

!!Акция!!

Alien_Rage

RePack

fifa19

RePack

Assassins Creed: Odyssey

RePack

NEED FOR SPEED™ PAYBACK

4 сезон

9 сезон

Бесстыжие 9 сезон

Все сериалы

все сериалы на PB.wtf

RePack

FAR CRY 5
  

Боец из трущоб / Gutter King (Кейт Алан Моррис) [2010 г., Триллер, Боевик, Драма, BDRip, Профессиональный + Оригинал] pb.wtf

Боец из трущоб через торрент pb.wtf

Размер: 1.45 GB | Добавлен: 7 лет 9 мес. назад | Торрент скачан:288 раз
Скачать  

02-01-2013 18:29 Боец из трущоб Скачать торрент  

Боец из трущоб / Gutter King

Год выпуска: 2010
Страна: США
Жанр: Триллер, Боевик, Драма
Продолжительность: 01:33:19
Перевод: Профессиональный (многоголосый закадровый) + Оригинал (Английский)

Режиссер: Кейт Алан Моррис
Продюссер: Мелисса Конрад, Кендра Джонс, Николь Абисинио
Сценарий: Кейт Алан Моррис

В ролях: Кэйси Кларк, Эрика Рамирез, Блейк Логан, Пол Алесси, Рид Арнольд, Дэррил Болдуин, Артур Л. Брэдди III

Описание: История о подростке, ставшим настоящим королем улиц. Никто не мог справиться с юным головорезом Уиллом, пока его отчим не решил направить энергию и силу пасынка в правильном направлении. Под чутким руководством отчима Уилл стал звездой уличных боев. Но однажды сводный брат решил отомстить ему за украденную любовь отца…

Качество: BDRip (Исходник Blu-Ray Remux)
Формат: AVI
Видео кодек: XviD
Аудио кодек: AC3
Видео: 720х400, 25,000 fps, 1634 kbps, 0.227 bit/pixel
Аудио#1: 48 kHz, AC3 5.1, 384.00 kbps / Профессиональный (многоголосый закадровый)
Аудио#2: 48 kHz, AC3 2.0, 192.00 kbps / Оригинал (Английский)
&
Общее
Полное имя : E:Фильмы МGutter King.2010.BDRip.avi
Формат : AVI
Формат/Информация : Audio Video Interleave
Размер файла : 1,45 Гбайт
Продолжительность : 1 ч. 33 м.
Общий поток : 2225 Кбит/сек
Программа кодирования : VirtualDubModRus 1.5.10.2 (build 2542/release)
Библиотека кодирования : VirtualDubMod build 2542/release

Видео
Идентификатор : 0
Формат : MPEG-4 Visual
Профиль формата : Advanced Simple@L5
Параметр BVOP формата : 1
Параметр QPel формата : Нет
Параметр GMC формата : Без точки перехода
Параметр матрицы формата : Выборочная
Режим смешивания : Сжатый битовый поток
Идентификатор кодека : XVID
Идентификатор кодека/Подсказка : XviD
Продолжительность : 1 ч. 33 м.
Битрейт : 1634 Кбит/сек
Ширина : 720 пикселей
Высота : 400 пикселей
Соотношение сторон : 16:9
Частота кадров : 25,000 кадров/сек
Цветовое пространство : YUV
Субдискретизация насыщенности : 4:2:0
Битовая глубина : 8 бит
Тип развёртки : Прогрессивная
Метод сжатия : С потерями
Бит/(Пиксели*Кадры) : 0.227
Размер потока : 1,07 Гбайт (73%)
Библиотека кодирования : XviD 65

Аудио #1
Идентификатор : 1
Формат : AC-3
Формат/Информация : Audio Coding 3
Расширение режима : CM (complete main)
Параметр Endianness формата : Big
Идентификатор кодека : 2000
Продолжительность : 1 ч. 33 м.
Вид битрейта : Постоянный
Битрейт : 384 Кбит/сек
Каналы : 6 каналов
Расположение каналов : Front: L C R, Side: L R, LFE
Частота : 48,0 КГц
Битовая глубина : 16 бит
Метод сжатия : С потерями
Размер потока : 256 Мбайт (17%)
Выравнивание : Разделение по промежуткам
Продолжительность промежутка : 40 мс. (1,00 видеокадр)
Время предзагрузки промежутка : 500 мс.
Заголовок : Профессиональный (многоголосый закадровый)

Аудио #2
Идентификатор : 2
Формат : AC-3
Формат/Информация : Audio Coding 3
Расширение режима : CM (complete main)
Параметр Endianness формата : Big
Идентификатор кодека : 2000
Продолжительность : 1 ч. 33 м.
Вид битрейта : Постоянный
Битрейт : 192 Кбит/сек
Каналы : 2 канала
Расположение каналов : Front: L R
Частота : 48,0 КГц
Битовая глубина : 16 бит
Метод сжатия : С потерями
Размер потока : 128 Мбайт (9%)
Выравнивание : Разделение по промежуткам
Продолжительность промежутка : 40 мс. (1,00 видеокадр)
Время предзагрузки промежутка : 500 мс.
Заголовок : Оригинал (Английский)


Боец из трущоб скачать торрент


pb.wtf



Скачать Боец из трущоб через торрент http://i52.fastpic.ru/big/2013/0102/44/3eefff1eab365048ad8a392a0434ad44.jpg Скачать фильм Боец из трущоб через торрент бесплантно в хорошем качестве Описание: История о подростке, ставшим настоящим королем улиц. Никто не мог справиться с юным головорезом Уиллом, пока его отчим не решил ... 10 10 1
Info! Золотая раздача, скачанное не засчитывается.
Торрент: Зарегистрирован [2013-01-02 18:29] · скачан: 288 раз
Статус: √ проверено
Размер: 1.45 GB
Как cкачать? Как скачать Боец из трущоб через торрент | qTorrent

% Раздел Тема Автор DL S | L
Фильмы 2010 [ 745 MB ] Боец из трущоб / Gutter King [2010 BDRip] MVO Ворон Скачать
1 | 0
Фильмы 2010 [ 1.46 GB ] Боец из трущоб / Gutter King [2010 BDRip] MVO + Original + Sub Ворон Скачать
1 | 0
Фильмы (DVD фильмы) [ 4.27 GB ] Боец из трущоб / Gutter King [2010 DVD5] shuller Скачать
1 | 0

28-11-2019 20:33  

Отключить всю рекламу на сайте

    Дорогой пользователь! Огромная просьба, поблагодарите релизера, оцените раздачу и оставьте свои комментарий, если Вы скачали Боец из трущоб через торрент бесплатно! Внесите свою лепту в развитие PiratBit!
    Комментировать посты могут только пользователи прошедшие не сложную регистрацию
    Показать сообщения:    

    Боец из трущоб через торрент
    Скачать бесплатно Боец из трущоб
    Боец из трущоб скачать торрент
    Боец из трущоб смотреть онлайн
    Cкачать фильм Боец из трущоб бесплатно
    Боец из трущоб скачать торрент в хорошем качестве
    Боец из трущоб смотреть онлайн бесплатно в хорошем качестве


    Вы не можете начинать темы
    Вы не можете отвечать на сообщения
    Вы не можете редактировать свои сообщения
    Вы не можете удалять свои сообщения
    Вы не можете голосовать в опросах
    Вы не можете прикреплять файлы к сообщениям
    Вы можете скачивать файлы