Ссылка на приватное зеркало нашего сайта всего за 1$. Внимание количество ограничено!!!

2 сезон

iTunes

1 сезон

1

iTunes

iTunes

iTunes

1 сезон

RePack

30

ИГРА 18+

pack

ВАЖНО

!!Акция!!

Alien_RageХит недели

RePack

MK11
pack

Забери бонус

RePack

jed

!!Акция!!

Alien_Rage

RePack

fifa19

RePack

Assassins Creed: Odyssey

RePack

NEED FOR SPEED™ PAYBACK

4 сезон

9 сезон

Бесстыжие 9 сезон

Все сериалы

все сериалы на PB.wtf

RePack

FAR CRY 5
  

Эволюция Борна / The Bourne Legacy (Тони Гилрой) [2012 г., боевик, триллер, детектив, приключения, BDRip 720p, DUB, лицензия] pb.wtf

Эволюция Борна через торрент pb.wtf

Размер: 9.51 GB | Добавлен: 7 лет 10 мес. назад | Торрент скачан:367 раз
Скачать  

05-12-2012 00:53 Эволюция Борна Скачать торрент  

Эволюция Борна / The Bourne Legacy

Год выпуска: 2012
Страна: США
Жанр: боевик, триллер, детектив, приключения
Продолжительность: 02:15:02
Перевод: Дубляж, Лицензия

Режиссер: Тони Гилрой
Продюссер: Патрик Краули, Фрэнк Маршалл, Бен Смит
Сценарий: Тони Гилрой, Дэн Гилрой, Роберт Ладлэм

Мировой рейтинг IMDB 6.80 (53 840)


В ролях: Джереми Реннер, Рейчел Вайс, Эдвард Нортон, Джоан Аллен, Альберт Финни, Скотт Гленн, Стейси Кич, Донна Мерфи, Майкл Чернус, Кори Столл, Илья Исаев, Илья Бледный, Александр Новиков, Тимофей Спивак, Алексей Колган

Описание: В игре всегда несколько фигур. Одна из них — Джейсон Борн, другая — совершенный агент Аарон Кросс. Их возможности безграничны. Но даже у идеального оружия бывают сбои...

Качество: BDRip 720p
Формат: MKV
Видео кодек: AVC
Аудио кодек: AC3
Видео: 1280x534 at 23.976 fps, x264@L4.1, 2pass, ~8000 kbps avg
Аудио#1: Russian: 48 kHz, AC3, 3/2 (L,C,R,l,r) + LFE ch, ~384.00 kbps avg |Дубляж, R5|
Аудио#2: English: 48 kHz, DTS, 3/2 (L,C,R,l,r) + LFE ch, ~1536.00 kbps avg
Аудио#3: English: 48 kHz, AC3, 2/0 (L,R) ch, ~192.00 kbps avg
Субтитры: Russian (Forced), Russian, English, English (SDH), English (SDH, COLORED)

Общее
Уникальный идентификатор : 203375157261288070151021698532782716382 (0x9900A16A817499A1A3210E32DE6535DE)
Полное имя : E:The.Bourne.Legacy.2012.720p.Bluray.Rus.Eng.HDCLUB.mkv
Формат : Matroska
Версия формата : Version 2
Размер файла : 9,51 Гбайт
Продолжительность : 2 ч. 15 м.
Общий поток : 10,1 Мбит/сек
Название фильма : HDCLUB Present "The Bourne Legacy 2012"
Дата кодирования : UTC 2012-12-04 01:30:03
Программа кодирования : mkvmerge v5.8.0 ('No Sleep / Pillow') built on Sep 2 2012 15:37:04
Библиотека кодирования : libebml v1.2.3 + libmatroska v1.3.0

Видео
Идентификатор : 1
Формат : AVC
Формат/Информация : Advanced Video Codec
Профиль формата : High@L4.1
Параметр CABAC формата : Да
Параметр ReFrames формата : 9 кадров
Идентификатор кодека : V_MPEG4/ISO/AVC
Продолжительность : 2 ч. 15 м.
Битрейт : 8000 Кбит/сек
Ширина : 1280 пикселей
Высота : 534 пикселя
Соотношение сторон : 2,40:1
Режим частоты кадров : Постоянный
Частота кадров : 23,976 кадра/сек
Цветовое пространство : YUV
Субдискретизация насыщенности : 4:2:0
Битовая глубина : 8 бит
Тип развёртки : Прогрессивная
Бит/(Пиксели*Кадры) : 0.488
Размер потока : 7,35 Гбайт (77%)
Заголовок : The.Bourne.Legacy.2012.720p.Bluray.Rus.Eng.HDCLUB
Библиотека кодирования : x264 core 129 r2230 1cffe9f
Настройки программы : cabac=1 / ref=9 / deblock=1:-3:-3 / analyse=0x3:0x133 / me=umh / subme=11 / psy=1 / psy_rd=1.20:0.02 / mixed_ref=1 / me_range=48 / chroma_me=1 / trellis=2 / 8x8dct=1 / cqm=0 / deadzone=21,11 / fast_pskip=0 / chroma_qp_offset=-3 / threads=12 / lookahead_threads=2 / sliced_threads=0 / nr=0 / decimate=1 / interlaced=0 / bluray_compat=0 / constrained_intra=0 / bframes=11 / b_pyramid=2 / b_adapt=2 / b_bias=0 / direct=3 / weightb=1 / open_gop=0 / weightp=2 / keyint=250 / keyint_min=23 / scenecut=40 / intra_refresh=0 / rc_lookahead=60 / rc=2pass / mbtree=0 / bitrate=8000 / ratetol=1.0 / qcomp=0.60 / qpmin=0 / qpmax=69 / qpstep=4 / cplxblur=20.0 / qblur=0.5 / vbv_maxrate=50000 / vbv_bufsize=62500 / nal_hrd=none / ip_ratio=1.40 / pb_ratio=1.30 / aq=1:0.80
Язык : English
Default : Да
Forced : Да

Аудио #1
Идентификатор : 2
Формат : AC-3
Формат/Информация : Audio Coding 3
Расширение режима : CM (complete main)
Параметр Endianness формата : Big
Идентификатор кодека : A_AC3
Продолжительность : 2 ч. 15 м.
Вид битрейта : Постоянный
Битрейт : 384 Кбит/сек
Каналы : 6 каналов
Расположение каналов : Front: L C R, Side: L R, LFE
Частота : 48,0 КГц
Битовая глубина : 16 бит
Метод сжатия : С потерями
Размер потока : 371 Мбайт (4%)
Заголовок : DD 5.1 @ 384 kbps - Dubbing, R5
Язык : Russian
Default : Да
Forced : Да

Аудио #2
Идентификатор : 3
Формат : DTS
Формат/Информация : Digital Theater Systems
Режим : 16
Параметр Endianness формата : Big
Идентификатор кодека : A_DTS
Продолжительность : 2 ч. 15 м.
Вид битрейта : Постоянный
Битрейт : 1509 Кбит/сек
Каналы : 6 каналов
Расположение каналов : Front: L C R, Side: L R, LFE
Частота : 48,0 КГц
Битовая глубина : 24 бит
Метод сжатия : С потерями
Размер потока : 1,42 Гбайт (15%)
Заголовок : DTS 5.1 @ 1536 kbps - Original
Язык : English
Default : Нет
Forced : Нет

Аудио #3
Идентификатор : 4
Формат : AC-3
Формат/Информация : Audio Coding 3
Профиль формата : Dolby Digital
Расширение режима : CM (complete main)
Параметр Endianness формата : Big
Идентификатор кодека : A_AC3
Продолжительность : 2 ч. 15 м.
Вид битрейта : Постоянный
Битрейт : 192 Кбит/сек
Каналы : 2 канала
Расположение каналов : Front: L R
Частота : 48,0 КГц
Битовая глубина : 16 бит
Метод сжатия : С потерями
Размер потока : 185 Мбайт (2%)
Заголовок : commentary
Язык : English
Default : Нет
Forced : Нет

Текст #1
Идентификатор : 5
Формат : UTF-8
Идентификатор кодека : S_TEXT/UTF8
Идентификатор кодека/Информация : UTF-8 Plain Text
Заголовок : forced
Язык : Russian
Default : Да
Forced : Нет

Текст #2
Идентификатор : 6
Формат : UTF-8
Идентификатор кодека : S_TEXT/UTF8
Идентификатор кодека/Информация : UTF-8 Plain Text
Заголовок : full
Язык : Russian
Default : Нет
Forced : Нет

Текст #3
Идентификатор : 7
Формат : UTF-8
Идентификатор кодека : S_TEXT/UTF8
Идентификатор кодека/Информация : UTF-8 Plain Text
Заголовок : full
Язык : English
Default : Нет
Forced : Нет

Текст #4
Идентификатор : 8
Формат : UTF-8
Идентификатор кодека : S_TEXT/UTF8
Идентификатор кодека/Информация : UTF-8 Plain Text
Заголовок : SDH
Язык : English
Default : Нет
Forced : Нет

Текст #5
Идентификатор : 9
Формат : UTF-8
Идентификатор кодека : S_TEXT/UTF8
Идентификатор кодека/Информация : UTF-8 Plain Text
Заголовок : COLOR SDH
Язык : English
Default : Нет
Forced : Нет


Эволюция Борна скачать торрент


pb.wtf



Скачать Эволюция Борна через торрент http://i49.fastpic.ru/big/2012/1205/35/574958e2cd0c74fe87b0c6fc4f5f5c35.jpg Скачать фильм Эволюция Борна через торрент бесплантно в хорошем качестве Описание: В игре всегда несколько фигур. Одна из них — Джейсон Борн, другая — совершенный агент Аарон Кросс. Их возможности безграничны. Но ... 10 10 1
Info! Золотая раздача, скачанное не засчитывается.
Торрент: Зарегистрирован [2012-12-05 00:53] · скачан: 367 раз
Статус: √ проверено
Размер: 9.51 GB
Как cкачать? Как скачать Эволюция Борна через торрент | qTorrent

% Раздел Тема Автор DL S | L
Фильмы с авторской озвучкой [ 2.6 GB ] Эволюция Борна / The Bourne Legacy [2012 BDRip] [AVO] killermax2013 Скачать
1 | 0
Ultra HD (UHD: 2K, 4K, 8K) — видео сверхвысокой чёткости [ 57.27 GB ] Эволюция Борна / The Bourne Legacy [2012 UHD BD Remux 2160p] 3xAVO+VO+DVO +DUB [] bober100 Скачать
1 | 0
Фильмы [HD 720p, 1080p] (Хороший звук DUB, MVO) [ 4.76 GB ] Эволюция Борна / The Bourne Legacy [2012 BDRip-720 DUB] slaventi-69 Скачать
1 | 0
Фильмы [HD 720p, 1080p] (Хороший звук DUB, MVO) [ 20.3 GB ] Эволюция Борна / The Bourne Legacy [2012 BDRip 1080p by msltel] DUB 3 x AVO VO msltel Скачать
1 | 0
Фильмы [HD 720p, 1080p] (Хороший звук DUB, MVO) [ 6.71 GB ] Эволюция Борна / The Bourne Legacy [2012 BDRip 720p by msltel] DUB 3 x AVO VO msltel Скачать
1 | 0
Фильмы 2012 [ 4.57 GB ] Эволюция Борна / The Bourne Legacy [2012 BDRip AVC by msltel] DUB 3 x AVO VO msltel Скачать
1 | 0
Фильмы 2012 [ 1.46 GB ] Эволюция Борна / The Bourne Legacy [2012 BDRip] Ворон Скачать
2 | 0

28-11-2019 20:33  

Отключить всю рекламу на сайте

05-12-2012 16:36 Эволюция Борна Скачать торрент  

Спасибо,ждал!Щас заценимpb.wtf



    Дорогой пользователь! Огромная просьба, поблагодарите релизера, оцените раздачу и оставьте свои комментарий, если Вы скачали Эволюция Борна через торрент бесплатно! Внесите свою лепту в развитие PiratBit!
    Комментировать посты могут только пользователи прошедшие не сложную регистрацию
    Показать сообщения:    

    Эволюция Борна через торрент
    Скачать бесплатно Эволюция Борна
    Эволюция Борна скачать торрент
    Эволюция Борна смотреть онлайн
    Cкачать фильм Эволюция Борна бесплатно
    Эволюция Борна скачать торрент в хорошем качестве
    Эволюция Борна смотреть онлайн бесплатно в хорошем качестве


    Вы не можете начинать темы
    Вы не можете отвечать на сообщения
    Вы не можете редактировать свои сообщения
    Вы не можете удалять свои сообщения
    Вы не можете голосовать в опросах
    Вы не можете прикреплять файлы к сообщениям
    Вы можете скачивать файлы