новый адрес
Ссылка на приватное зеркало всего за 1$. Внимание количество ограничено!!!

iTunes

1+1

iTunes

мы

WEB-DL

1

iTunes

Чернобыль

iTunes

Ральф против интернета

Лицензия

ПШазам

Лицензия

Оно 2

Лицензия

30
pack

Вам бонус

ВАЖНО

!!Акция!!

Alien_RageХит недели

RePack

Resident Evil 21

ИГРА 18+

pack

RePack

jed

!!Акция!!

Alien_Rage

RePack

fifa19

RePack

Assassins Creed: Odyssey

RePack

NEED FOR SPEED™ PAYBACK

3 сезон

9 сезон

Бесстыжие 9 сезон

Все сериалы

все сериалы на PB.wtf

RePack

FAR CRY 5
Ребята, катастрофически не хватает 1900р. для оплаты серверов за Октябрь (всвязи с блокировками трафик упал в 3 раза), 1-2р., выручайте.
  

Возлюбленные / Les bien-aimes (Кристоф Оноре) [2011 г., драма, DVDRip, DUB, лицензия] pb.wtf

Возлюбленные через торрент pb.wtf

Размер: 2.18 GB | Добавлен: 6 лет 11 мес. назад | Торрент скачан:37 раз
Скачать  

23-12-2012 17:11 Возлюбленные Скачать торрент  

Возлюбленные / Les bien-aimes

Год выпуска: 2011
Страна: Франция, Великобритания, Чехия
Жанр: драма
Продолжительность: 02:12:50
Перевод: Дубляж, Лицензия
Субтитры: Отсутствуют

Режиссер: Кристоф Оноре
Продюссер: Паскаль Кочето
Сценарий: Кристоф Оноре

Мировой рейтинг IMDB 6.00 (912)


В ролях: Кьяра Мастроянни, Катрин Денёв, Людивин Санье, Луи Гаррель, Милош Форман, Пол Шнайдер, Радивойе Буквич, Мишель Дельпеш, Омар Бен Селлем, Дастин Сегура-Суарес, Николай Быстров

Описание: От Парижа 60-х годов до Лондона 21 века Мадлен и ее дочь Вера не прекращают появляться и исчезать из жизни своих любимых мужчин. Однако любить легко и непринужденно позволено далеко не во все времена. Как противостоять неумолимому ходу времени, которое влияет даже на самые глубокие чувства?

Качество: DVDRip
Формат: AVI
Видео кодек: XviD
Аудио кодек: AC3
Видео: 720x320 (2.25:1), 25 fps, XviD build 50 ~1958 kbps avg, 0.34 bit/pixel
Аудио#1: 48 kHz, AC3 Dolby Digital, 3/2 (L,C,R,l,r) + LFE ch, ~384 kbps
Общее
Полное имя : F:ЗакачкиVozljublennye.2011.DVDRip.avi
Формат : AVI
Формат/Информация : Audio Video Interleave
Профиль формата : OpenDML
Размер файла : 2,18 Гбайт
Продолжительность : 2 ч. 12 м.
Общий поток : 2350 Кбит/сек
Программа кодирования : VirtualDubMod 1.5.10.3 | www.virtualdub-fr.org || (build 2550/release)
Библиотека кодирования : VirtualDubMod build 2550/release

Видео
Идентификатор : 0
Формат : MPEG-4 Visual
Профиль формата : Advanced Simple@L5
Параметр BVOP формата : 2
Параметр QPel формата : Нет
Параметр GMC формата : Без точки перехода
Параметр матрицы формата : Default (H.263)
Идентификатор кодека : XVID
Идентификатор кодека/Подсказка : XviD
Продолжительность : 2 ч. 12 м.
Битрейт : 1953 Кбит/сек
Ширина : 720 пикселей
Высота : 320 пикселей
Соотношение сторон : 2,25:1
Частота кадров : 25,000 кадров/сек
Цветовое пространство : YUV
Субдискретизация насыщенности : 4:2:0
Битовая глубина : 8 бит
Тип развёртки : Прогрессивная
Метод сжатия : С потерями
Бит/(Пиксели*Кадры) : 0.339
Размер потока : 1,81 Гбайт (83%)
Библиотека кодирования : XviD 1.2.1 (UTC 2008-12-04)

Аудио
Идентификатор : 1
Формат : AC-3
Формат/Информация : Audio Coding 3
Расширение режима : CM (complete main)
Идентификатор кодека : 2000
Продолжительность : 2 ч. 12 м.
Вид битрейта : Постоянный
Битрейт : 384 Кбит/сек
Каналы : 6 каналов
Расположение каналов : Front: L C R, Side: L R, LFE
Частота : 48,0 КГц
Битовая глубина : 16 бит
Метод сжатия : С потерями
Размер потока : 365 Мбайт (16%)
Выравнивание : Разделение по промежуткам
Продолжительность промежутка : 40 мс. (1,00 видеокадр)
Время предзагрузки промежутка : 500 мс.


Возлюбленные скачать торрент


pb.wtf



Скачать Возлюбленные через торрент http://i51.fastpic.ru/big/2012/1223/c4/23bee14dddfd6227c9917604d8438dc4.jpg Скачать фильм Возлюбленные через торрент бесплантно в хорошем качестве Описание: От Парижа 60-х годов до Лондона 21 века Мадлен и ее дочь Вера не прекращают появляться и исчезать из жизни своих любимых мужчин. ... 5 10 1
Info! Золотая раздача, скачанное не засчитывается.
Торрент: Зарегистрирован [2012-12-23 17:11] · скачан: 37 раз
Статус: √ проверено
Размер: 2.18 GB
Как cкачать? Как скачать Возлюбленные через торрент | qTorrent

% Раздел Тема Автор DL S | L
Арт-хаус и авторское кино [ 747 MB ] Возлюбленные / Les bien-aimes [2011 HDRip] DUB Oдин 777 Скачать
1 | 0
Арт-хаус и авторское кино [ 7.84 GB ] Возлюбленные / Les bien-aimes / Beloved [2011 DVD9] R5 voovaz Скачать
1 | 0

28-11-2019 20:33  

Отключить всю рекламу на сайте

    Дорогой пользователь! Огромная просьба, поблагодарите релизера, оцените раздачу и оставьте свои комментарий, если Вы скачали Возлюбленные через торрент бесплатно! Внесите свою лепту в развитие PiratBit!
    Комментировать посты могут только пользователи прошедшие не сложную регистрацию
    Показать сообщения:    

    Возлюбленные через торрент
    Скачать бесплатно Возлюбленные
    Возлюбленные скачать торрент
    Возлюбленные смотреть онлайн
    Cкачать фильм Возлюбленные бесплатно
    Возлюбленные скачать торрент в хорошем качестве
    Возлюбленные смотреть онлайн бесплатно в хорошем качестве


    Вы не можете начинать темы
    Вы не можете отвечать на сообщения
    Вы не можете редактировать свои сообщения
    Вы не можете удалять свои сообщения
    Вы не можете голосовать в опросах
    Вы не можете прикреплять файлы к сообщениям
    Вы можете скачивать файлы