Достать ножи: Стеклянная луковица

MVO

Добыча

Дубляж

Уэнсдэй

1 сезон

Тор

Дубляж

13 клиническая

1 сезон

Жестокая ночь

MVO

Одни из нас

1 сезон

Deluxe

pack

Рекомендуем

30

Пиратка

ВАЖНО

ВАЖНО

Ghostwire

Пиратка

jed

RePack

nioh2

RePack

RDR2

RePack

NEED FOR SPEED™ PAYBACK

RePack

скачать торрент

Кинопоиск HD

Острые козырьки 6 сезон

6 сезон

FAR CRY 6

RePack

скачать торрент

Лицензия

скачать торрент

MVO

1

1 сезон

скачать торрент

1 сезон

скачать торрент

Лицензия

  

Порочная страсть / Arbitrage (Николас Джареки) [2012 г., триллер, драма,HDRip] Дубляж |лицензия|

Порочная страсть через торрент pb.wtf

Размер: 1.45 GB | Добавлен: 10 лет назад | Торрент скачан:389 раз
Смотреть онлайн | Скачать | Поддержите нас   

11-12-2012 05:15 Порочная страсть Скачать торрент  

Порочная страсть / Arbitrage

Год выпуска: 2012
Страна: США
Жанр: триллер, драма
Продолжительность: 01:46:41
Перевод: Профессиональный (полное дублирование) |Лицензия|
Режиссер: Николас Джареки
Продюсер: Лаура Бикфорд, Джастин Наппи, Роберт Салерно
Сценарий: Николас Джареки
В ролях: Ричард Гир, Сьюзен Сарандон, Тим Рот, Брит Марлинг, Летиция Каста, Нэйт Паркер, Уильям Фридкин, Моника Реймунд, Джош Пэйс, Кристофер Айджмен
Описание:Роберт Миллер — харизматичный аферист и гениальный любовник. Он привык к тому, что в постелях его всегда ждут жена и любовница, которые, правда, попеременно закатывают ему скандалы, а огромные деньги делаются просто из воздуха. Но дутый бизнес не может держаться долго. Почуяв провал, он стремится поскорее продать свой хедж-фонд крупному банку, прежде чем раскроются его махинации. Непредвиденные события и нелепые ошибки толкают его на отчаянный шаг…
Качество: HDRip
Формат: AVI
Видео кодек: XviD
Аудио кодек: AC3
Видео720x400 (1.80:1), 23.976 fps, XviD MPEG-4 ~1493 kbps avg, 0.22 bit/pix
Аудио: 48 kHz, AC3 Dolby Digital, 3/2 (L,C,R,l,r) + LFE ch, ~448 kbps


Скриншоты
Полное имя : G:Фильмы 2011-12Порочная страсть Arbitrage (2012) BDRipPorochnaja.strast.2012.D.BDRip.1.45GBavi
Формат : AVI
Формат/Информация : Audio Video Interleave
Размер файла : 1,45 Гбайт
Продолжительность : 1 ч. 46 м.
Общий поток : 1951 Кбит/сек
Программа кодирования : VirtualDubMod 1.5.10.2 (build 2540/release)
Библиотека кодирования : VirtualDubMod build 2540/release

Видео
Идентификатор : 0
Формат : MPEG-4 Visual
Профиль формата : Advanced [email protected]
Параметр BVOP формата : 2
Параметр QPel формата : Нет
Параметр GMC формата : Без точки перехода
Параметр матрицы формата : Выборочная
Идентификатор кодека : XVID
Идентификатор кодека/Подсказка : XviD
Продолжительность : 1 ч. 46 м.
Битрейт : 1493 Кбит/сек
Ширина : 720 пикселей
Высота : 400 пикселей
Соотношение сторон : 16:9
Частота кадров : 23,976 кадра/сек
Цветовое пространство : YUV
Субдискретизация насыщенности : 4:2:0
Битовая глубина : 8 бит
Тип развёртки : Прогрессивная
Метод сжатия : С потерями
Бит/(Пиксели*Кадры) : 0.216
Размер потока : 1,11 Гбайт (77%)
Библиотека кодирования : XviD 64

Аудио
Идентификатор : 1
Формат : AC-3
Формат/Информация : Audio Coding 3
Расширение режима : CM (complete main)
Параметр Endianness формата : Big
Идентификатор кодека : 2000
Продолжительность : 1 ч. 46 м.
Вид битрейта : Постоянный
Битрейт : 448 Кбит/сек
Каналы : 6 каналов
Расположение каналов : Front: L C R, Side: L R, LFE
Частота : 48,0 КГц
Битовая глубина : 16 бит
Метод сжатия : С потерями
Размер потока : 342 Мбайт (23%)
Выравнивание : Разделение по промежуткам
Продолжительность промежутка : 42 мс. (1,00 видеокадр)
Время предзагрузки промежутка : 500 мс.



Скачать Порочная страсть через торрент http://i53.fastpic.ru/big/2012/1210/b4/cf6d61a90621b798bd7ff0afc92cf8b4.png Скачать, смотреть онлайн Порочная страсть бесплантно в хорошем качестве Описание:Роберт Миллер — харизматичный аферист и гениальный любовник. Он привык к тому, что в постелях его всегда ждут жена и любовница, ... 10 10 2
Info! Золотая раздача, скачанное не засчитывается.
Торрент: Зарегистрирован [2012-12-11 05:15] · скачан: 389 раз
Статус: √ проверено
Размер: 1.45 GB
Как cкачать? Как скачать Порочная страсть через торрент | UTorrent

% Раздел Тема Автор DL S | L
Фильмы [HD 720p, 1080p] (Хороший звук DUB, MVO) [ 5.83 GB ] Порочная страсть / Arbitrage | Дубляж | 720p, Дубляж, лицензия [email protected] Скачать
1 | 0
Фильмы 2012 [ 1.46 GB ] Порочная страсть / Arbitrage | Дубляж | DLRip, Дубляж, лицензия shuller Скачать
1 | 0

28-11-2019 20:33  


Отключить вcю реклaмy на сайте, в т.ч. и в плеере онлайн просмотра!

17-05-2013 17:36 Порочная страсть Скачать торрент  

Однако фильм поучительный...



    Дорогой пользователь! Огромная просьба, поблагодарите релизера, оцените раздачу и оставьте свои комментарий, если Вы скачали Порочная страсть через торрент бесплатно!!
    Комментировать посты могут только пользователи прошедшие не сложную регистрацию
    Показать сообщения:    


    Порочная страсть через торрент
    Скачать бесплатно Порочная страсть
    Порочная страсть скачать торрент
    Порочная страсть смотреть онлайн
    Cкачать фильм Порочная страсть бесплатно
    Порочная страсть скачать торрент в хорошем качестве
    Порочная страсть смотреть онлайн бесплатно в хорошем качестве
    Вы не можете начинать темы
    Вы не можете отвечать на сообщения
    Вы не можете редактировать свои сообщения
    Вы не можете удалять свои сообщения
    Вы не можете голосовать в опросах
    Вы не можете прикреплять файлы к сообщениям
    Вы можете скачивать файлы
    Порочная страсть / Arbitrage [2012 г., триллер, драма,HDRip] Дубляж |лицензия| смотреть онлайн, скачать торрент picoco.icu