Достать ножи: Стеклянная луковица

MVO

Добыча

Дубляж

Уэнсдэй

1 сезон

Тор

Дубляж

13 клиническая

1 сезон

Жестокая ночь

MVO

Одни из нас

1 сезон

Deluxe

pack

Рекомендуем

30

Пиратка

ВАЖНО

ВАЖНО

Ghostwire

Пиратка

jed

RePack

nioh2

RePack

RDR2

RePack

NEED FOR SPEED™ PAYBACK

RePack

скачать торрент

Кинопоиск HD

Острые козырьки 6 сезон

6 сезон

FAR CRY 6

RePack

скачать торрент

Лицензия

скачать торрент

MVO

1

1 сезон

скачать торрент

1 сезон

скачать торрент

Лицензия

  

Облачный атлас / Cloud Atlas (Лана Вачовски, Том Тыквер, Энди Вачовски) [2012 г., фантастика, драма, детектив, BDRip-AVC, Дубляж, лицензия]

Облачный атлас через торрент pb.wtf

Размер: 2.18 GB | Добавлен: 10 лет назад | Торрент скачан:307 раз
Смотреть онлайн | Скачать | Поддержите нас   

17-12-2012 17:15 Облачный атлас Скачать торрент  

Облачный атлас / Cloud Atlas Год выпуска: 2012
Страна: США, Германия, Гонконг, Сингапур
Жанр:Фантастика, Детектив, Драма
Продолжительность: 02:52:07
Перевод: Дублированный [Лицензия]
Режиссер:Лана Вачовски, Том Тыквер, Энди Вачовски
В ролях: Том Хэнкс, Холли Берри, Джим Броудбент, Хьюго Уивинг, Джим Стёрджесс, Пэ Дуна, Бен Уишоу, Джеймс Д’Арси, Кит Дэвид

Шесть историй — пять реинкарнаций, происходящих в разное время, тесно переплетаются между собой… Многослойный сюжет начинается с истории американского нотариуса из 19 века, за ним следом идёт бедный музыкант-англичанин из 1930. Далее — издатель гламурных журналов, герой нашего времени. В ближайшем будущем центральным персонажем станет клон-бунтарь, и всё закончится на примитивном человеке на Гавайях, который пережил апокалипсис.

Качество: BDRip-AVC
Формат: MKV
Видео кодек: H.264
Аудио кодек: AC-3
Видео:1024x432 ( 2,35:1), 23.976 fps, AVC(X264) ~1363 kbps avgt/pixel

Аудио#1: 48 kHz,AC3 , 6 ch, ~ 448 Кбит/сек (Дубляж)

Аудио#2: 48 kHz,AC3 , 6 ch, ~ 448 Кбит/сек ( Оригинал)
Формат : Matroska
Версия формата : Version 2
Размер файла : 2,18 Гбайт
Продолжительность : 2 ч. 52 м.
Общий поток : 1810 Кбит/сек
Название фильма : -=NNM-CLUB.RU=-
Дата кодирования : UTC 2012-12-17 12:35:16
Программа кодирования : mkvmerge v5.0.1 ('Es ist Sommer') built on Oct 24 2011 19:45:06
Библиотека кодирования : libebml v1.2.2 + libmatroska v1.3.0

Видео
Идентификатор : 1
Формат : AVC
Формат/Информация : Advanced Video Codec
Профиль формата : [email protected]
Параметр CABAC формата : Да
Параметр ReFrames формата : 12 кадров
Режим смешивания : Header stripping
Идентификатор кодека : V_MPEG4/ISO/AVC
Продолжительность : 2 ч. 52 м.
Битрейт : 1363 Кбит/сек
Ширина : 1024 пикселя
Высота : 432 пикселя
Соотношение сторон : 2,35:1
Соотношение сторон в оригинале : 2,35:1
Режим частоты кадров : Постоянный
Частота кадров : 23,976 кадра/сек
Цветовое пространство : YUV
Субдискретизация насыщенности : 4:2:0
Битовая глубина : 8 бит
Тип развёртки : Прогрессивная
Бит/(Пиксели*Кадры) : 0.129
Размер потока : 1,59 Гбайт (73%)
Заголовок : Oblachnyy.atlas.2012.D.BDRip.H.264.NNM-CLUB.GIU
Библиотека кодирования : x264 core 119 r2106 07efeb4
Настройки программы : cabac=1 / ref=12 / deblock=1:-3:-3 / analyse=0x3:0x113 / me=umh / subme=11 / psy=1 / psy_rd=1.00:0.00 / mixed_ref=1 / me_range=32 / chroma_me=1 / trellis=2 / 8x8dct=1 / cqm=0 / deadzone=21,11 / fast_pskip=1 / chroma_qp_offset=-2 / threads=12 / sliced_threads=0 / nr=0 / decimate=1 / interlaced=0 / bluray_compat=0 / constrained_intra=0 / bframes=7 / b_pyramid=2 / b_adapt=2 / b_bias=0 / direct=3 / weightb=1 / open_gop=0 / weightp=2 / keyint=250 / keyint_min=20 / scenecut=40 / intra_refresh=0 / rc_lookahead=40 / rc=2pass / mbtree=1 / bitrate=1363 / ratetol=1.0 / qcomp=0.70 / qpmin=0 / qpmax=51 / qpstep=4 / cplxblur=20.0 / qblur=0.5 / ip_ratio=1.40 / aq=1:1.00
Default : Да
Forced : Нет

Аудио
Идентификатор : 2
Формат : AC-3
Формат/Информация : Audio Coding 3
Расширение режима : CM (complete main)
Параметр Endianness формата : Big
Режим смешивания : Header stripping
Идентификатор кодека : A_AC3
Продолжительность : 2 ч. 52 м.
Вид битрейта : Постоянный
Битрейт : 448 Кбит/сек
Каналы : 6 каналов
Расположение каналов : Front: L C R, Side: L R, LFE
Частота : 48,0 КГц
Битовая глубина : 16 бит
Метод сжатия : С потерями
Размер потока : 552 Мбайт (25%)
Заголовок : AC3.448.Kbps (6ch) Russian
Язык : Russian
Default : Да
Forced : Нет

Меню
00:00:00.000 : en:Chapter 00
00:05:23.698 : en:Chapter 01
00:14:48.554 : en:Chapter 02
00:24:37.559 : en:Chapter 03
00:31:45.361 : en:Chapter 04
00:38:48.284 : en:Chapter 05
00:46:39.087 : en:Chapter 06
00:54:30.684 : en:Chapter 07
00:59:25.937 : en:Chapter 08
01:06:08.381 : en:Chapter 09
01:12:34.266 : en:Chapter 10
01:20:25.153 : en:Chapter 11
01:26:51.456 : en:Chapter 12
01:33:15.006 : en:Chapter 13
01:39:44.645 : en:Chapter 14
01:45:39.374 : en:Chapter 15
01:53:32.388 : en:Chapter 16
02:00:03.070 : en:Chapter 17
02:09:22.921 : en:Chapter 18
02:16:09.870 : en:Chapter 19
02:22:03.431 : en:Chapter 20
02:29:16.656 : en:Chapter 21
02:37:02.246 : en:Chapter 22
02:42:50.218 : en:Chapter 23
скриншот   скриншот   скриншот   скриншот   скриншот   скриншот  



Скачать Облачный атлас через торрент http://img841./img841/2902/newprojectep.png Скачать, смотреть онлайн Облачный атлас бесплантно в хорошем качестве В ролях: Том Хэнкс, Холли Берри, Джим Броудбент, Хьюго Уивинг, Джим Стёрджесс, Пэ Дуна, Бен Уишоу, Джеймс Д’Арси, Кит Дэвид Шесть ... 10 10 4
Info! Золотая раздача, скачанное не засчитывается.
Торрент: Зарегистрирован [2012-12-17 17:54] · скачан: 307 раз
Статус: √ проверено
Размер: 2.18 GB
Как cкачать? Как скачать Облачный атлас через торрент | UTorrent

% Раздел Тема Автор DL S | L
Фильмы [HD 720p, 1080p] (Хороший звук DUB, MVO) [ 21.04 GB ] Облачный атлас / Cloud Atlas | DUB | 1080p , DUB, лицензия Зайчина Скачать
1 | 0
Фильмы (Blu-ray, BD-Remux, HDDVD) [ 45.46 GB ] Облачный атлас / Cloud Atlas | DUB+ 2xAVO | BDRemux 1080i от HDClub Open Matte Ворон Скачать
2 | 0
Фильмы 2012 [ 2.18 GB ] Облачный атлас / Cloud Atlas | DUB | BDRip, DUB, лицензия Ворон Скачать
1 | 0
Фильмы (Blu-ray, BD-Remux, HDDVD) [ 48.48 GB ] Облачный атлас / Cloud Atlas | Дубляж | Облачный атлас / Cloud Atlas (Лана Вачовски, Том Тыквер, Энди Вачовски Артронах Скачать
1 | 0
Фильмы 2012 [ 1.37 GB ] Облачный атлас / Cloud Atlas | DUB | DVDRip, DUB, лицензия JhaWithYou Скачать
1 | 0
Фильмы 2012 [ 1.46 GB ] Облачный атлас / Cloud Atlas | DUB | BDRip, DUB, лицензия Ворон Скачать
1 | 0
Фильмы [HD 720p, 1080p] (Хороший звук DUB, MVO) [ 14.34 GB ] Облачный атлас / Cloud Atlas | AVO + Ukr + Original + Sub | 720p Mr. Freeman Скачать
1 | 0



Последний раз редактировалось: akcent (2012-12-17 18:37), всего редактировалось 2 раз(а)

28-11-2019 20:33  


Отключить вcю реклaмy на сайте, в т.ч. и в плеере онлайн просмотра!

17-12-2012 17:33 Облачный атлас Скачать торрент  

а можно тоже самое но в AVI???



17-12-2012 17:40 Облачный атлас Скачать торрент  

KRUCKY
Можно

http://pb.wtf/topic/98219/



17-12-2012 17:42 Облачный атлас Скачать торрент  

Vetаl писал(а):


Спасибо!!!



17-12-2012 17:57 Облачный атлас Скачать торрент  

Перезалил торрент файл. просьба перекачать



20-12-2012 16:03 Облачный атлас Скачать торрент  

akcent7 писал(а):

akcent7

, качество отличное! надеюсь фильма тоже понравится
:this:



02-05-2014 06:17 Облачный атлас Скачать торрент  

Уважаемый, можете вернуться на раздачу?



03-05-2014 13:48 Облачный атлас Скачать торрент  

Завис на 98%,очень печально((дайте скорости



    Дорогой пользователь! Огромная просьба, поблагодарите релизера, оцените раздачу и оставьте свои комментарий, если Вы скачали Облачный атлас через торрент бесплатно!!
    Комментировать посты могут только пользователи прошедшие не сложную регистрацию
    Показать сообщения:    


    Облачный атлас через торрент
    Скачать бесплатно Облачный атлас
    Облачный атлас скачать торрент
    Облачный атлас смотреть онлайн
    Cкачать фильм Облачный атлас бесплатно
    Облачный атлас скачать торрент в хорошем качестве
    Облачный атлас смотреть онлайн бесплатно в хорошем качестве
    Вы не можете начинать темы
    Вы не можете отвечать на сообщения
    Вы не можете редактировать свои сообщения
    Вы не можете удалять свои сообщения
    Вы не можете голосовать в опросах
    Вы не можете прикреплять файлы к сообщениям
    Вы можете скачивать файлы
    Облачный атлас / Cloud Atlas [2012 г., фантастика, драма, детектив, BDRip-AVC, Дубляж, лицензия] смотреть онлайн, скачать торрент picoco.icu