Ссылка на приватное зеркало нашего сайта всего за 1$. Внимание количество ограничено!!!

2 сезон

iTunes

1 сезон

1

2 сезон

2 сезон

iTunes

1 сезон

RePack

30

Ultimate

ВАЖНО

ИГРА 18+

pack

RePack

MK11
pack

Забери бонус

RePack

jed

!!Акция!!

Alien_Rage

RePack

fifa19

RePack

Assassins Creed: Odyssey

RePack

NEED FOR SPEED™ PAYBACK

4 сезон

9 сезон

Бесстыжие 9 сезон

Все сериалы

все сериалы на PB.wtf

RePack

FAR CRY 5
  

Искупление (Александр Прошкин) [2012 г., драма, военный, история, DVDRip, Оригинал] pb.wtf

Искупление через торрент pb.wtf

Размер: 1.46 GB | Добавлен: 7 лет 11 мес. назад | Торрент скачан:752 раза
Скачать  

17-12-2012 15:05 Искупление Скачать торрент  

Искупление
Год выпуска: 2012
Страна: Россия
Жанр: драма, военный, история
Продолжительность: 02:00
Перевод: Оригинал

Режиссер: Александр Прошкин
Продюссер: Татьяна Яковенко, Дмитрий Пиркулов, Юрий Столяров
Сценарий: Эльга Лындина, Фридрих Горенштейн

Мировой рейтинг IMDB 3.30 (7)


В ролях: Виктория Романенко, Риналь Мухаметов, Андрей Панин, Татьяна Яковенко, Виктор Сухоруков, Сергей Дрейден, Екатерина Волкова, Наталья Морозова, Алишер Умаров, Николай Бутенин

Описание: Действие фильма разворачивается в канун первого послевоенного Нового 1946 года в разоренном южном городе, где еще совсем недавно жили в мире и согласии представители различных национальностей. Молох войны разделил их на жертв и палачей, породил бесконечное сострадание и нечеловеческую низость. Впрочем, и послевоенная жизнь в разрухе, голоде и нищете обернулась тяжким испытанием. Посудомойка, вдова героя-летчика, ворует из милицейской столовой, чтоб прокормить шестнадцатилетнюю дочь и двух доходяг, которых, по доброте душевной, приютила в своем убогом жилище. Возмущенная дочь доносит на мать и та отправляется искупать грех в тюрьму.Тема искупления в фильме сложна и непрямолинейна. Молодой лейтенант, летчик, еврей по национальности, возвращается после госпиталя в родной город и узнает, что вся его семья погибла в годы оккупации от рук негодяя соседа. Слепая жажда мести...кровь за кровь...обращены в пустоту — негодяй понес наказание и сгнивает заживо в тюрьме.Испепеляющее лейтенанта чувство толкает его на самоубийство. И только новое, пробуждающееся в нем чувство к влюбленной в него юной девушке, спасает его от рокового шага.

Качество: DVDRip
Формат: AVI
Видео кодек: XviD
Аудио кодек: AC3
Видео: MPEG4, XviD, 720x272 (2.647), 25.000 fps, 1 278 Kbps (0.247 bit/pixel)
Аудио#1: AC-3, 48.0 KHz, 6 ch, 448 Kbps, CBR

Общее
Полное имя : D:ТоррентыФИЛЬМЫ торентаИскупление.2012.DVDRip.avi
Формат : AVI
Формат/Информация : Audio Video Interleave
Размер файла : 1,46 Гбайт
Продолжительность : 2 ч. 0 м.
Общий поток : 1736 Кбит/сек
Программа кодирования : VirtualDubMod 1.5.10.3 (build 2550/release)
Библиотека кодирования : VirtualDubMod build 2550/release

Видео
Идентификатор : 0
Формат : MPEG-4 Visual
Профиль формата : Advanced Simple@L5
Параметр BVOP формата : 2
Параметр QPel формата : Нет
Параметр GMC формата : Без точки перехода
Параметр матрицы формата : Выборочная
Идентификатор кодека : XVID
Идентификатор кодека/Подсказка : XviD
Продолжительность : 2 ч. 0 м.
Битрейт : 1278 Кбит/сек
Ширина : 720 пикс.
Высота : 272 пикс.
Соотношение сторон : 2,647
Частота кадров : 25,000 кадр/сек
Цветовое пространство : YUV
Подвыборка цветности : 4:2:0
Битовая глубина : 8 бит
Тип развёртки : Прогрессивная
Метод сжатия : С потерями
Бит/(Пиксели*Кадры) : 0.261
Размер потока : 1,07 Гбайт (74%)
Библиотека кодирования : XviD 1.2.1 (UTC 2008-12-04)

Аудио
Идентификатор : 1
Формат : AC-3
Формат/Информация : Audio Coding 3
Расширение режима : CM (complete main)
Идентификатор кодека : 2000
Продолжительность : 2 ч. 0 м.
Вид битрейта : Постоянный
Битрейт : 448 Кбит/сек
Каналы : 6 каналов
Расположение каналов : Front: L C R, Side: L R, LFE
Частота : 48,0 КГц
Битовая глубина : 16 бит
Метод сжатия : С потерями
Размер потока : 386 Мбайт (26%)
Выравнивание : Разделение по промежуткам
Продолжительность промежутка : 40 мс. (1,00 видеокадр)
Время предзагрузки промежутка : 500 ms


Искупление скачать торрент


pb.wtf



Скачать Искупление через торрент http://i51.fastpic.ru/big/2012/1217/dc/b914ee2e63b05861bc35d9d042a3afdc.png Скачать фильм Искупление через торрент бесплантно в хорошем качестве Описание: Действие фильма разворачивается в канун первого послевоенного Нового 1946 года в разоренном южном городе, где еще совсем недавно ... 9.7 10 7
Info! Золотая раздача, скачанное не засчитывается.
Торрент: Зарегистрирован [2012-12-17 15:05] · скачан: 752 раз
Статус: √ проверено
Размер: 1.46 GB
Как cкачать? Как скачать Искупление через торрент | qTorrent

% Раздел Тема Автор DL S | L
Порно фильмы без сюжета [ 4.91 GB ] XXX ДП Искупление / XXX DP Redemption [2020 All Sex Anal DP Threesomes WEB-DL] bashai5 Скачать
2 | 0
Фильмы 2018 [DVDrip, WEB-DLRip, HDrip] (DUB, MVO) [ 1.46 GB ] Несломленный: Путь к искуплению / Unbroken: Path to Redemption [2018 биография BDRip] DUB [Пифагор / Netflix] bober100 Скачать
1 | 0
Фильмы [HD 720p, 1080p] (Хороший звук DUB, MVO) [ 10.69 GB ] Несломленный: Путь к искуплению / Unbroken: Path to Redemption [2018 биография BDRip 1080p] DUB [Пифагор / Netflix] bober100 Скачать
1 | 0
Фильмы [HD 720p, 1080p] (Хороший звук DUB, MVO) [ 5.88 GB ] Несломленный: Путь к искуплению / Unbroken: Path to Redemption [2018 биография BDRip 720p] DUB [Пифагор / Netflix] bober100 Скачать
1 | 0
Фильмы 2018 [DVDrip, WEB-DLRip, HDrip] (DUB, MVO) [ 2.9 GB ] Несломленный: Путь к искуплению / Unbroken: Path to Redemption [2018 биография BDRip-AVC] DUB [Пифагор / Netflix] +MVO [HDRezka Studio] bober100 Скачать
1 | 0
T Фильмы (мультфильмы) cо спонсором показа (Новинки AVI/MKV) [ 1.37 GB ] Комбинация 2: Искупление / The Combination: Redemption [2019 DVDRip] MVO ["Синема УС"] bober100 Скачать
1 | 0
T Фильмы 2019-2020 [DVDrip, WEB-DLRip, HDrip] (DUB, MVO) [ 1.44 GB ] Искупление / Atone [2019 WEB-DLRip] MVO [HDRezka Studio] - ExKinoRay Enigma2010 Скачать
11 | 0

28-11-2019 20:33  

Отключить всю рекламу на сайте

    Дорогой пользователь! Огромная просьба, поблагодарите релизера, оцените раздачу и оставьте свои комментарий, если Вы скачали Искупление через торрент бесплатно! Внесите свою лепту в развитие PiratBit!
    Комментировать посты могут только пользователи прошедшие не сложную регистрацию
    Показать сообщения:    

    Искупление через торрент
    Скачать бесплатно Искупление
    Искупление скачать торрент
    Искупление смотреть онлайн
    Cкачать фильм Искупление бесплатно
    Искупление скачать торрент в хорошем качестве
    Искупление смотреть онлайн бесплатно в хорошем качестве


    Вы не можете начинать темы
    Вы не можете отвечать на сообщения
    Вы не можете редактировать свои сообщения
    Вы не можете удалять свои сообщения
    Вы не можете голосовать в опросах
    Вы не можете прикреплять файлы к сообщениям
    Вы можете скачивать файлы