Ссылка на приватное зеркало нашего сайта всего за 1$. Внимание количество ограничено!!!

2 сезон

iTunes

1 сезон

1

2 сезон

2 сезон

iTunes

1 сезон

RePack

30

Новинка

ВАЖНО

ИГРА 18+

pack

RePack

MK11
pack

Забери бонус

RePack

jed

!!Акция!!

Alien_Rage

RePack

fifa19

RePack

Assassins Creed: Odyssey

RePack

NEED FOR SPEED™ PAYBACK

4 сезон

9 сезон

Бесстыжие 9 сезон

Все сериалы

все сериалы на PB.wtf

RePack

FAR CRY 5
  

Стальная бабочка (Ренат Давлетьяров) [2012 г., драма, криминал, детектив, HDRip] pb.wtf

Стальная бабочка через торрент pb.wtf

Размер: 700 MB | Добавлен: 8 лет назад | Торрент скачан:515 раз
Скачать  

23-11-2012 07:52 Стальная бабочка Скачать торрент  

Стальная бабочка

Год выпуска: 2012
Страна: Россия
Жанр: драма, криминал, детектив
Продолжительность: 01:46:41
Перевод: Не требуется

Режиссер: Ренат Давлетьяров



В ролях: Дарья Мельникова, Анатолий Белый, Дарья Мороз, Елена Галубина, Андрей Казаков, Петр Винс, Алексей Семченков, Максим Дромашко, Виктор Немец, Мария Наумова

Описание: Беглые беспризорники во главе с юной Чумой зарабатывают на пропитание дерзкими ограблениями. Попавшись в очередной раз на разбое, Чума вынуждена под давлением полиции стать живой приманкой для серийного убийцы. Если она пополнит список жертв, искать ее никто не станет.
Почерк маньяка одинаков, все девушки похожи, а место охоты — лесной массив на окраине Москвы. Для опера Ханина поимка монстра не просто вопрос чести, но и цена погон. А для Чумы — цена свободы. Общая цель сближает юную беспризорницу и взрослого циничного опера.

Качество: HDRip
Формат: AVI
Видео кодек: XviD
Аудио кодек: MP3
Видео: (XviD), 787 Kb/s, 640x352,24.000 fps
Аудио#1: MP3 , 48 KHz, 2 ch, 128 kbps, 48.0 KHz







D:Stalnaja.babochka.2012.HDRip.700MB.avi
General
Complete name : D:Stalnaja.babochka.2012.HDRip.700MB.avi
Format : AVI
Format/Info : Audio Video Interleave
File size : 700 MiB
Duration : 1h 46mn
Overall bit rate : 918 Kbps
Writing application : VirtualDubMod 1.5.10.2 (build 2540/release)
Writing library : VirtualDubMod build 2540/release
Video #0
ID : 0
Format : MPEG-4 Visual
Format profile : Advanced Simple@L5
Format settings, BVOP : 2
Format settings, QPel : No
Format settings, GMC : No warppoints
Format settings, Matrix : Custom
Codec ID : XVID
Codec ID/Hint : XviD
Duration : 1h 46mn
Bit rate : 780 Kbps
Width : 640 pixels
Height : 352 pixels
Display aspect ratio : 16:9
Frame rate : 24.000 fps
Color space : YUV
Chroma subsampling : 4:2:0
Bit depth : 8 bits
Scan type : Progressive
Compression mode : Lossy
Bits/(Pixel*Frame) : 0.144
Stream size : 596 MiB (85%)
Writing library : XviD 1.2.1 (UTC 2008-12-04)
Audio #1
ID : 1
Format : MPEG Audio
Format version : Version 1
Format profile : Layer 3
Codec ID : 55
Codec ID/Hint : MP3
Duration : 1h 46mn
Bit rate mode : Constant
Bit rate : 128 Kbps
Channel(s) : 2 channels
Sampling rate : 48.0 KHz
Compression mode : Lossy
Stream size : 97.7 MiB (14%)
Alignment : Aligned on interleaves
Interleave, duration : 42 ms (1.00 video frame)
Interleave, preload duration : 504 ms
Writing library : LAME3.99r
Encoding settings : -m s -V 4 -q 2 -lowpass 17 -b 128

pb.wtf



Скачать Стальная бабочка через торрент http://i47.fastpic.ru/big/2012/1123/a6/1961b22ca6d7b4afc28056e31f89efa6.jpg Скачать фильм Стальная бабочка через торрент бесплантно в хорошем качестве Описание: Беглые беспризорники во главе с юной Чумой зарабатывают на пропитание дерзкими ограблениями. Попавшись в очередной раз на разбое, ... 10 10 1
Info! Золотая раздача, скачанное не засчитывается.
Торрент: Зарегистрирован [2012-11-23 08:19] · скачан: 515 раз
Статус: √ проверено
Размер: 700 MB
Как cкачать? Как скачать Стальная бабочка через торрент | qTorrent

% Раздел Тема Автор DL S | L
Наши фильмы (HD, WEB-DL 720p, 1080p) [ 4.1 GB ] Стальная бабочка [2012 BDRip 720p] лицензия -=Cherry=- Скачать
1 | 0
Наши новые фильмы 2012 [ 1.46 GB ] Стальная бабочка [2012 BDRip] филиппок Скачать
1 | 0
Наши новые фильмы 2012 [ 1.46 GB ] Стальная бабочка [2012 BDRip-AVC] [ лицензия ] potroks Скачать
1 | 0

28-11-2019 20:33  

Отключить всю рекламу на сайте

26-11-2012 16:53 Стальная бабочка Скачать торрент  

Спасибо,не плохое кино,не скажу,что отличное,есть недочеты,главный из которых.на мой взгляд-это то,что почти с самого начала понятно кто там маньяк,на куртке и на нашивке очень очевидно заострили внимание.Оставались либо один из близких друзей главного героя.либо кто то совсем не знакомый,кого не показывали совсем.Первый вариант был бы совсем бредовый,второй-не интересный....pb.wtf



30-11-2012 21:19 Стальная бабочка Скачать торрент  

petrovich77 писал(а):

Спасибо,не плохое кино,не скажу,что отличное,есть недочеты,главный из которых.на мой взгляд-это то,что почти с самого начала понятно кто там маньяк,на куртке и на нашивке очень очевидно заострили внимание.Оставались либо один из близких друзей главного героя.либо кто то совсем не знакомый,кого не показывали совсем.Первый вариант был бы совсем бредовый,второй-не интересный....

Огромное спасибо,не какое кино.
Посмотрел и забыл с удовольствием.pb.wtf



    Дорогой пользователь! Огромная просьба, поблагодарите релизера, оцените раздачу и оставьте свои комментарий, если Вы скачали Стальная бабочка через торрент бесплатно! Внесите свою лепту в развитие PiratBit!
    Комментировать посты могут только пользователи прошедшие не сложную регистрацию
    Показать сообщения:    

    Стальная бабочка через торрент
    Скачать бесплатно Стальная бабочка
    Стальная бабочка скачать торрент
    Стальная бабочка смотреть онлайн
    Cкачать фильм Стальная бабочка бесплатно
    Стальная бабочка скачать торрент в хорошем качестве
    Стальная бабочка смотреть онлайн бесплатно в хорошем качестве


    Вы не можете начинать темы
    Вы не можете отвечать на сообщения
    Вы не можете редактировать свои сообщения
    Вы не можете удалять свои сообщения
    Вы не можете голосовать в опросах
    Вы не можете прикреплять файлы к сообщениям
    Вы можете скачивать файлы