Ссылка на приватное зеркало нашего сайта всего за 1$. Внимание количество ограничено!!!

2 сезон

iTunes

1 сезон

1

iTunes

iTunes

iTunes

1 сезон

RePack

30

ИГРА 18+

pack

ВАЖНО

!!Акция!!

Alien_RageХит недели

RePack

MK11
pack

Забери бонус

RePack

jed

!!Акция!!

Alien_Rage

RePack

fifa19

RePack

Assassins Creed: Odyssey

RePack

NEED FOR SPEED™ PAYBACK

4 сезон

9 сезон

Бесстыжие 9 сезон

Все сериалы

все сериалы на PB.wtf

RePack

FAR CRY 5
  

Мадагаскар 3 / Madagascar 3: Europe's Most Wanted (Эрик Дарнелл, Том МакГрат, Конрад Вернон) [2012 г., Мультфильм, комедия, HDRip - AVC, DUB, лицензия] pb.wtf

Мадагаскар 3 через торрент pb.wtf

Размер: 1.47 GB | Добавлен: 8 лет назад | Торрент скачан:1269 раз
Скачать  

11-10-2012 16:20 Мадагаскар 3 Скачать торрент  

Мадагаскар 3 / Madagascar 3: Europe's Most Wanted

Год выпуска: 2012
Страна: США / DreamWorks Animation
Жанр: Мультфильм, комедия
Продолжительность: 01:33:25
Перевод: Дубляж, Лицензия
Тип релиза: Лицензия

Режиссер: Эрик Дарнелл, Том МакГрат, Конрад Вернон

В ролях: Бен Стиллер, Саша Барон Коэн, Дэвид Швиммер, Фрэнсис МакДорманд, Крис Рок, Джада Пинкетт Смит, Шерри Шеперд, Седрик «Развлекатель», Энди Рихтер, Андре Бенджамин, Фрэнк Уэлкер, Том МакГрат, Джессика Честейн, Брайан Крэнстон, Мартин Шорт, Крис Миллер, Кристофер Найтс, Конрад Вернон, Винни Джонс, Стив Джонс, Ник Флетчер, Паз Вега, Дэнни Джейкобс, Дэн О`Коннор, Эрик Дарнелл, Стивен Кеарин, Эмили Нордвинд

Описание: Лев Алекс, зебра Марти, жираф Мелман и бегемот Глория присоединяются к бродячему цирку, в надежде вернуться в Нью-Йорк.
General
Unique ID                                : 230014902146089673443987438018684741537 (0xAD0B423EBD972D0EB9129F592B1767A1)
Complete name                            : D:Мои раздачиMadagaskar.3.2012.HDRip(AVC)_Rir by Odessit.mkv
Format                                   : Matroska
Format version                           : Version 2
File size                                : 1.47 GiB
Duration                                 : 1h 33mn
Overall bit rate mode                    : Variable
Overall bit rate                         : 2 248 Kbps
Movie name                               : Odessit
Encoded date                             : UTC 2012-10-11 15:20:28
Writing application                      : mkvmerge v5.8.0 ('No Sleep / Pillow') built on Sep  2 2012 15:37:04
Writing library                          : libebml v1.2.3 + libmatroska v1.3.0

Video
ID                                       : 1
Format                                   : AVC
Format/Info                              : Advanced Video Codec
Format profile                           : High@L4.1
Format settings, CABAC                   : Yes
Format settings, ReFrames                : 3 frames
Codec ID                                 : V_MPEG4/ISO/AVC
Duration                                 : 1h 33mn
Bit rate mode                            : Variable
Bit rate                                 : 1 799 Kbps
Maximum bit rate                         : 14.0 Mbps
Width                                    : 1 024 pixels
Height                                   : 576 pixels
Display aspect ratio                     : 16:9
Frame rate mode                          : Constant
Frame rate                               : 23.976 fps
Color space                              : YUV
Chroma subsampling                       : 4:2:0
Bit depth                                : 8 bits
Scan type                                : Progressive
Bits/(Pixel*Frame)                       : 0.127
Stream size                              : 1.15 GiB (78%)
Writing library                          : x264 core 125 r2200 999b753
Encoding settings                        : cabac=1 / ref=3 / deblock=1:0:0 / analyse=0x3:0x113 / me=hex / subme=7 / psy=1 / psy_rd=1.00:0.00 / mixed_ref=1 / me_range=16 / chroma_me=1 / trellis=1 / 8x8dct=1 / cqm=0 / deadzone=21,11 / fast_pskip=1 / chroma_qp_offset=-2 / threads=3 / lookahead_threads=1 / sliced_threads=0 / slices=4 / nr=0 / decimate=1 / interlaced=0 / bluray_compat=1 / constrained_intra=0 / bframes=3 / b_pyramid=1 / b_adapt=1 / b_bias=0 / direct=1 / weightb=1 / open_gop=1 / weightp=1 / keyint=24 / keyint_min=1 / scenecut=40 / intra_refresh=0 / rc_lookahead=24 / rc=2pass / mbtree=1 / bitrate=1799 / ratetol=1.0 / qcomp=0.60 / qpmin=0 / qpmax=69 / qpstep=4 / cplxblur=20.0 / qblur=0.5 / vbv_maxrate=14000 / vbv_bufsize=14000 / nal_hrd=vbr / ip_ratio=1.40 / aq=1:1.00
Language                                 : English
Default                                  : Yes
Forced                                   : No

Audio
ID                                       : 2
Format                                   : AC-3
Format/Info                              : Audio Coding 3
Mode extension                           : CM (complete main)
Format settings, Endianness              : Big
Codec ID                                 : A_AC3
Duration                                 : 1h 33mn
Bit rate mode                            : Constant
Bit rate                                 : 448 Kbps
Channel(s)                               : 6 channels
Channel positions                        : Front: L C R, Side: L R, LFE
Sampling rate                            : 48.0 KHz
Bit depth                                : 16 bits
Compression mode                         : Lossy
Stream size                              : 299 MiB (20%)
Default                                  : Yes
Forced                                   : No



Качество: HDRip - AVC
Формат: MKV
Видео кодек: AVC
Аудио кодек: AC3
Видео: MPEG-4 AVC, 1799 Кбит/сек, 1024x576, 23,976 кадра/сек
Аудио#1: Русский, (AC3, 6 ch, 448 Кбит/c) [лицензия]
Релиз от:



pb.wtf



Скачать Мадагаскар 3 через торрент http://i45.fastpic.ru/big/2012/1011/e3/a316cce25b2eff09d3f479783bb7a1e3.jpg Скачать фильм Мадагаскар 3 через торрент бесплантно в хорошем качестве Описание: Лев Алекс, зебра Марти, жираф Мелман и бегемот Глория присоединяются к бродячему цирку, в надежде вернуться в ... 9.7 10 17
Info! Золотая раздача, скачанное не засчитывается.
Торрент: Зарегистрирован [2012-10-11 16:20] · скачан: 1 269 раз
Статус: √ проверено
Размер: 1.47 GB
Как cкачать? Как скачать Мадагаскар 3 через торрент | qTorrent

28-11-2019 20:33  

Отключить всю рекламу на сайте

11-10-2012 18:56 Мадагаскар 3 Скачать торрент  

BDRip 720 когда будет?pb.wtf



24-11-2012 20:23 Мадагаскар 3 Скачать торрент  

Изображение периодически дерганое, как будто забчатое колесо, как будто каждый второй кадр выпадает. Это видно уже начиная с заствки DreamWorks.pb.wtf



06-03-2013 18:59 Мадагаскар 3 Скачать торрент  

ИЗОБРАЖЕНИЕ КОНЕЧНО ИНОГДА ДЕРГАЕТЬСЯ,НО ЭТО НЕ КРИТИЧНО.ВСЕ РАВНО СУПЕР.СПАСИБО!!!pb.wtf



    Дорогой пользователь! Огромная просьба, поблагодарите релизера, оцените раздачу и оставьте свои комментарий, если Вы скачали Мадагаскар 3 через торрент бесплатно! Внесите свою лепту в развитие PiratBit!
    Комментировать посты могут только пользователи прошедшие не сложную регистрацию
    Показать сообщения:    

    Мадагаскар 3 через торрент
    Скачать бесплатно Мадагаскар 3
    Мадагаскар 3 скачать торрент
    Мадагаскар 3 смотреть онлайн
    Cкачать фильм Мадагаскар 3 бесплатно
    Мадагаскар 3 скачать торрент в хорошем качестве
    Мадагаскар 3 смотреть онлайн бесплатно в хорошем качестве


    Вы не можете начинать темы
    Вы не можете отвечать на сообщения
    Вы не можете редактировать свои сообщения
    Вы не можете удалять свои сообщения
    Вы не можете голосовать в опросах
    Вы не можете прикреплять файлы к сообщениям
    Вы можете скачивать файлы