1 сезон

1 сезон

iTunes

1

КиноПоиск HD

Кинопоиск HD

iTunes

13

1 сезон

RePack

30

Новинка

ВАЖНО

ИГРА 18+

pack

RePack

MK11
pack

Легкие деньги

RePack

jed

RePack

fifa19

RePack

RDR2

RePack

NEED FOR SPEED™ PAYBACK

4 сезон

9 сезон

Бесстыжие 9 сезон

Все сериалы

все сериалы на PB.wtf

RePack

FAR CRY 5
  
Magnet ссылка

Новая полицейская история / New Police Story / Xin jing cha gu shi (Бенни Чан) [2004 г., Боевик, триллер, драма, криминал, HDRip, DUB, лицензия] pb.wtf

Новая полицейская история через торрент pb.wtf

Размер: 1.46 GB | Добавлен: 8 лет 3 мес. назад | Торрент скачан:237 раз
Скачать  

03-01-2013 11:04 Новая полицейская история Скачать торрент  


Новая полицейская история / New Police Story / Xin jing cha gu shi
Год выпуска: 2004
Страна: Гонконг, Китай
Жанр: Боевик, триллер, драма, криминал
Продолжительность: 02:02:54
Перевод: Дубляж, Лицензия

Режиссер: Бенни Чан

Бюджет: HKD 80 000 000
Премьера в мире: 23 сентября 2004



В ролях: Джеки Чан, Николас Тсе, Чарли Енг, Шарлин Чой, Дэниэл Ву, Дейв Вон, Энди Он, Теренс Йин, Hiroyoshi Komuro, Коко Чианг, Асука Хигучи, Дип Нг, Кеннет Лоу, Тони Хо, Тимми Хунг, Карл Нг, Хой Линь, Сэмюэл Пэнг, Филип Нг, Джон Шам, Мэнди Чунг, Кои Вонг, Алва Чунь, Родерик Лам

Описание: Команда инспектора Винга почти полностью уничтожена в неравной схватке с гангстерами. Чудом оставшийся в живых полицейский винит себя в смерти друзей и начинает искать забвение в алкоголе. Новый напарник инспектора, молодой офицер помогает Вингу вернуться к жизни. Вместе они бросают вызов мафии Гонконга и вступают на путь мести, чтобы наказать убийц своих товарищей.

Качество: HDRip [BDRip 1080p]
Формат: AVI
Видео кодек: XviD
Аудио кодек: AC3
Видео: 720x304 (2.37:1), 23.976 fps, XviD build 64 ~1307 kbps avg, 0.25 bit/pixel
Аудио: 48 kHz, AC3 Dolby Digital, 3/2 (L,C,R,l,r) + LFE ch, ~384 kbps


Автор рипа: Dean24
скриншот  скриншот  
скриншот  скриншот  
скриншот  скриншот  





Общее:
Полное имя: D:Для сайтаRip'snovaya_policeyskaya_istoriya_HDRip.avi
Формат: AVI
Формат/Информация: Audio Video Interleave
Размер файла: 1,46 Гбайт
Продолжительность: 2 ч. 2 м.
Общий поток: 1701 Кбит/сек
Программа кодирования: VirtualDubMod 1.5.10.3 (build 2550/release)
Библиотека кодирования: VirtualDubMod build 2550/release

Видео:
Идентификатор: 0
Формат: MPEG-4 Visual
Профиль формата: Advanced Simple@L5
Параметр BVOP формата: 2
Параметр QPel формата: Нет
Параметр GMC формата: Без точки перехода
Параметр матрицы формата: Default (H.263)
Идентификатор кодека: XVID
Идентификатор кодека/Подсказка: XviD
Продолжительность: 2 ч. 2 м.
Битрейт: 1308 Кбит/сек
Ширина: 720 пикс.
Высота: 304 пикс.
Соотношение сторон: 2,35:1
Частота кадров: 23,976 кадр/сек
Цветовое пространство: YUV
Подвыборка цветности: 4:2:0
Битовая глубина: 8 бит
Тип развёртки: Прогрессивная
Метод сжатия: С потерями
Бит/(Пиксели*Кадры): 0.249
Размер потока: 1,12 Гбайт (77%)
Библиотека кодирования: XviD 64

Аудио:
Идентификатор: 1
Формат: AC-3
Формат/Информация: Audio Coding 3
Расширение режима: CM (complete main)
Идентификатор кодека: 2000
Продолжительность: 2 ч. 2 м.
Вид битрейта: Постоянный
Битрейт: 384 Кбит/сек
Каналы: 6 каналов
Расположение каналов: Front: L C R, Side: L R, LFE
Частота: 48,0 КГц
Битовая глубина: 16 бит
Метод сжатия: С потерями
Размер потока: 38 Мбайт (23%)
Выравнивание: Разделение по промежуткам
Продолжительность промежутка: 42 мс. (1,00 видеокадр)
Время предзагрузки промежутка: 500 ms

• Новая работа Чана стала своего рода дебютом актера в новом качестве. Впервые с начала своей карьеры в кино мастер отказывается от привычного амплуа героя-комедианта и демонстрирует иную грань своего таланта, исполняя драматическую роль.
• У себя на родине в Гонконге «Новая полицейская история» попала в списки лидеров проката, собрав только за первые три дня около $2,5 млн.
• Кинотеатры Китая получили более 400 копий фильма, чтобы удовлетворить зрительский интерес, что принесло его создателям еще около 12 млн.
• Universal Pictures уже приобрела права на прокат «Новой полицейской истории» в Японии и Корее.
• Несмотря на название, этот фильм никак не связан с предыдущими 4 частями: во-первых, в тех фильмах героя Джеки зовут Кевин Чан (Чан Гакхёй), а здесь возникает Чан Гвоквинг. Во-вторых, комических эпизодов в этом фильме практически нет, сюжет более близок к драме.
• Высота с которой Джеки Чан спускался в наручниках составила 27 этажей.
pb.wtf



Скачать Новая полицейская история через торрент http://i51.fastpic.ru/big/2013/0103/8e/67abd3e58de0e9a4975a2bb8c4e52d8e.jpg Скачать фильм Новая полицейская история через торрент бесплантно в хорошем качестве Описание: Команда инспектора Винга почти полностью уничтожена в неравной схватке с гангстерами. Чудом оставшийся в живых полицейский винит ... 10 10 7
Info! Золотая раздача, скачанное не засчитывается.
Торрент: Зарегистрирован [2013-01-03 11:04] · скачан: 237 раз
Статус: √ проверено
Размер: 1.46 GB
Как cкачать? Как скачать Новая полицейская история через торрент | UTorrent

% Раздел Тема Автор DL S | L
Фильмы (HD 720p, 1080p) (48-60 fps) [ 6.73 GB ] Новая полицейская история / Xin jing cha gu shi / New police story [2004 BDRip 720p / 60 fps] от NNNB еnvy Скачать
1 | 0

28-11-2019 20:33  

Отключить всю рекламу на сайте

03-01-2013 11:16 Новая полицейская история Скачать торрент  

Dean24
Перезалей сэмпл на рекомендуемый хостинг: Рекомендуемые файловые хостинги на PiratBit.Net pb.wtf



03-01-2013 11:22 Новая полицейская история Скачать торрент  

Шмель
Ну вообще то он у меня залит на multi-up.com
А он у вас в рекомендованных
P.S. Сначала там написано что туда проблемно заливать, а чуть ниже он в рекомендованных
Вообще никакой проблемности в этом хостинге не вижуpb.wtf



03-01-2013 11:37 Новая полицейская история Скачать торрент  

Dean24
Не знаю, кто добавил. Убрал его. Хостинг щас неважный. Раньше был лучше.pb.wtf



03-01-2013 11:39 Новая полицейская история Скачать торрент  

Шмель
Для меня он какой был, такой и остался. Всегда на него заливаю, и буду заливатьpb.wtf



    Дорогой пользователь! Огромная просьба, поблагодарите релизера, оцените раздачу и оставьте свои комментарий, если Вы скачали Новая полицейская история через торрент бесплатно! Внесите свою лепту в развитие PiratBit!
    Комментировать посты могут только пользователи прошедшие не сложную регистрацию
    Показать сообщения:    

    Новая полицейская история через торрент
    Скачать бесплатно Новая полицейская история
    Новая полицейская история скачать торрент
    Новая полицейская история смотреть онлайн
    Cкачать фильм Новая полицейская история бесплатно
    Новая полицейская история скачать торрент в хорошем качестве
    Новая полицейская история смотреть онлайн бесплатно в хорошем качестве


    Вы не можете начинать темы
    Вы не можете отвечать на сообщения
    Вы не можете редактировать свои сообщения
    Вы не можете удалять свои сообщения
    Вы не можете голосовать в опросах
    Вы не можете прикреплять файлы к сообщениям
    Вы можете скачивать файлы