2 сезон

iTunes

1 сезон

1

iTunes

iTunes

iTunes

1 сезон

RePack

30

ИГРА 18+

pack

ВАЖНО

!!Акция!!

Alien_RageХит недели

RePack

MK11
pack

Забери бонус

RePack

jed

!!Акция!!

Alien_Rage

RePack

fifa19

RePack

Assassins Creed: Odyssey

RePack

NEED FOR SPEED™ PAYBACK

4 сезон

9 сезон

Бесстыжие 9 сезон

Все сериалы

все сериалы на PB.wtf

RePack

FAR CRY 5
  

Ангел-хранитель / Аnglavakt (Johan Brisinger) [2010 г., драма, DVDRip, VO] pb.wtf

Ангел-хранитель через торрент pb.wtf

Размер: 1.57 GB | Добавлен: 7 лет 9 мес. назад | Торрент скачан:14 раз
Скачать  

03-01-2013 11:52 Ангел-хранитель Скачать торрент  

Ангел-хранитель / Аnglavakt

Год выпуска: 2010
Страна: Швеция
Жанр: драма
Продолжительность: 01:30:13
Перевод: Любительский одноголосый

Режиссер: Johan Brisinger
Продюссер: Mikael Flodell, Питер Поссне, Джеспер Бергом-Ларссон
Сценарий: Johan Brisinger

Мировой рейтинг IMDB 4.90 (248)


В ролях: Изабелла Скорупко, Микаэл Нюквист, Дональд Самптер, Чеки Карио, Ева Фрёлинг, Джейкоб Эрикссон, Кайса Эрнст, Сага Гарде, Ян Вальдекранц, Андерс Палм

Описание: Упорядоченное существование Эрнста и его жены Сесилии обрывается, когда их девятилетний сын Александр попадает после несчастного случая в больницу. В рациональном мире Эрнста это несчастье — просто совпадение, в то время как Сесилия пытается найти смысл в том, что произошло. Остраняясь друг от друга, супруги все меньше понимают друг друга, Но когда Сесилия встречает таинственного незнакомца с необычными способностями, предлагающего помочь супругам в их несчастье, Эрнст и Сесилия встают перед новым выбором...

Качество: DVDRip
Формат: AVI
Видео кодек: XviD
Аудио кодек: MP3 , AC3
Видео: 720x304 (2.37:1), 25 fps, XviD build 50 ~1703 kbps avg, 0.31 bit/pixel
Аудио#1: 48 kHz, MPEG Layer 3, 2 ch, ~320.00 kbps avg (Russian)
Аудио#2: 48 kHz, AC3 Dolby Digital, 3/2 (L,C,R,l,r) + LFE ch, ~448 kbps (Svenska)
скриншот   скриншот   скриншот   скриншот  

General
Complete name : D:Ангел хранитель..avi
Format : AVI
Format/Info : Audio Video Interleave
File size : 1.57 GiB
Duration : 1h 30mn
Overall bit rate : 2 487 Kbps
Writing application : VirtualDubModRus 1.5.10.2 (build 2542/release)
Writing library : VirtualDubMod build 2542/release

Video
ID : 0
Format : MPEG-4 Visual
Format profile : Advanced Simple@L5
Format settings, BVOP : 1
Format settings, QPel : No
Format settings, GMC : No warppoints
Format settings, Matrix : Default (MPEG)
Codec ID : XVID
Codec ID/Hint : XviD
Duration : 1h 30mn
Bit rate : 1 705 Kbps
Width : 720 pixels
Height : 304 pixels
Display aspect ratio : 2.35:1
Frame rate : 25.000 fps
Color space : YUV
Chroma subsampling : 4:2:0
Bit depth : 8 bits
Scan type : Progressive
Compression mode : Lossy
Bits/(Pixel*Frame) : 0.312
Stream size : 1.07 GiB (69%)
Writing library : XviD 1.2.1 (UTC 2008-12-04)

Audio #1
ID : 1
Format : MPEG Audio
Format version : Version 1
Format profile : Layer 3
Mode : Joint stereo
Codec ID : 55
Codec ID/Hint : MP3
Duration : 1h 30mn
Bit rate mode : Constant
Bit rate : 320 Kbps
Channel(s) : 2 channels
Sampling rate : 48.0 KHz
Compression mode : Lossy
Stream size : 206 MiB (13%)
Alignment : Aligned on interleaves
Interleave, duration : 40 ms (1.00 video frame)
Interleave, preload duration : 504 ms
Writing library : LAME3.98

Audio #2
ID : 2
Format : AC-3
Format/Info : Audio Coding 3
Mode extension : CM (complete main)
Format settings, Endianness : Big
Codec ID : 2000
Duration : 1h 30mn
Bit rate mode : Constant
Bit rate : 448 Kbps
Channel(s) : 6 channels
Channel positions : Front: L C R, Side: L R, LFE
Sampling rate : 48.0 KHz
Bit depth : 16 bits
Compression mode : Lossy
Stream size : 289 MiB (18%)
Alignment : Split accross interleaves
Interleave, duration : 40 ms (1.00 video frame)
Interleave, preload duration : 500 ms


Ангел-хранитель скачать торрент


pb.wtf



Скачать Ангел-хранитель через торрент http://i53.fastpic.ru/big/2012/1230/c4/b4ed4ce240cc16355a84d48f58c1e6c4.jpg Скачать фильм Ангел-хранитель через торрент бесплантно в хорошем качестве Описание: Упорядоченное существование Эрнста и его жены Сесилии обрывается, когда их девятилетний сын Александр попадает после несчастного ... 10 10 1
Info! Золотая раздача, скачанное не засчитывается.
Торрент: Зарегистрирован [2013-01-03 11:52] · скачан: 14 раз
Статус: T временная
Размер: 1.57 GB
Как cкачать? Как скачать Ангел-хранитель через торрент | qTorrent

28-11-2019 20:33  

Отключить всю рекламу на сайте

03-01-2013 15:32 Ангел-хранитель Скачать торрент  

ххх...нуха у них неплохая :)pb.wtf



    Дорогой пользователь! Огромная просьба, поблагодарите релизера, оцените раздачу и оставьте свои комментарий, если Вы скачали Ангел-хранитель через торрент бесплатно! Внесите свою лепту в развитие PiratBit!
    Комментировать посты могут только пользователи прошедшие не сложную регистрацию
    Показать сообщения:    

    Ангел-хранитель через торрент
    Скачать бесплатно Ангел-хранитель
    Ангел-хранитель скачать торрент
    Ангел-хранитель смотреть онлайн
    Cкачать фильм Ангел-хранитель бесплатно
    Ангел-хранитель скачать торрент в хорошем качестве
    Ангел-хранитель смотреть онлайн бесплатно в хорошем качестве


    Вы не можете начинать темы
    Вы не можете отвечать на сообщения
    Вы не можете редактировать свои сообщения
    Вы не можете удалять свои сообщения
    Вы не можете голосовать в опросах
    Вы не можете прикреплять файлы к сообщениям
    Вы можете скачивать файлы