Ссылка на приватное зеркало нашего сайта всего за 1$. Внимание количество ограничено!!!

2 сезон

iTunes

1 сезон

1

2 сезон

2 сезон

iTunes

1 сезон

RePack

30

Ultimate

ВАЖНО

ИГРА 18+

pack

RePack

MK11
pack

Забери бонус

RePack

jed

!!Акция!!

Alien_Rage

RePack

fifa19

RePack

Assassins Creed: Odyssey

RePack

NEED FOR SPEED™ PAYBACK

4 сезон

9 сезон

Бесстыжие 9 сезон

Все сериалы

все сериалы на PB.wtf

RePack

FAR CRY 5
  

Воин севера / Jadesoturi / Jade Warrior (Анти-Юсси Аннила) [2006 г., фэнтези, боевик, драма, приключения, DVDRip, MVO, лицензия] pb.wtf

Воин севера через торрент pb.wtf

Размер: 1.37 GB | Добавлен: 7 лет 11 мес. назад | Торрент скачан:229 раз
Скачать  

03-01-2013 13:28 Воин севера Скачать торрент  

Воин севера / Jadesoturi / Jade Warrior

Год выпуска: 2006
Страна: Китай, Эстония, Финляндия, Нидерланды
Жанр: фэнтези, боевик, драма, приключения
Продолжительность: 01:40:13
Перевод: Профессиональный многоголосый

Режиссер: Анти-Юсси Аннила
Продюссер: Петри Йокиранта, Теро Каукомаа, Маргус Ыунапу
Сценарий: Анти-Юсси Аннила, Петри Йокиранта, Марко Яткола

Бюджет: € 2 500 000
Премьера в мире: 8 сентября 2006




http://www.kinopoisk.ru/film/153896/

В ролях: Томми Эронен, Маркку Пелтола, Чжан Цзинчу, Криста Косонен, Хао Данг, Чэнь Тайшэн, Элле Кулль, Ляньшэн Тун, Цюпу Тао, Сяомэй Тун

Описание: Роскошное широкоэкранное представление с захватывающими боевыми сценами, дыханием мистических легенд и загадочными экзотическими пейзажами.
Много веков назад бесстрашный воин Синтай вступает в неравный бой с демоном, чтобы защитить свою любовь и избавить мир от зла… Но поединок не завершен, а лишь отложен на время. Тысячу лет спустя когда исследователи пытаются расшифровать послание, найденное в гробнице древнего воина, Синтай с помощью магической мельницы Сампо обретает новое рождение. Ему предстоит новый бой с демоном…

Качество: DVDRip
Формат: AVI
Видео кодек: DivX
Аудио кодек: AC3
Видео: MPEG-4 Visual, DivX 5, 1499 Кбит/сек, 720х304 пикселя, 25,000 кадров/сек
Аудио#1: AC-3, 448 Кбит/сек, 6 каналов, 48,0 КГц, Russian





Формат : AVI
Формат/Информация : Audio Video Interleave
Размер файла : 1,37 Гбайт
Продолжительность : 1 ч. 40 м.
Общий поток : 1954 Кбит/сек
Программа кодирования : VirtualDubMod 1.5.4.1 (build 2178/release)
Библиотека кодирования : VirtualDubMod build 2178/release

Видео
Идентификатор : 0
Формат : MPEG-4 Visual
Параметр BVOP формата : 1
Параметр QPel формата : Нет
Параметр GMC формата : Без точки перехода
Параметр матрицы формата : Default (H.263)
Режим смешивания : Сжатый битовый поток
Идентификатор кодека : DX50
Идентификатор кодека/Подсказка : DivX 5
Продолжительность : 1 ч. 40 м.
Битрейт : 1499 Кбит/сек
Ширина : 720 пикселей
Высота : 304 пикселя
Соотношение сторон : 2,35:1
Частота кадров : 25,000 кадров/сек
Цветовое пространство : YUV
Субдискретизация насыщенности : 4:2:0
Битовая глубина : 8 бит
Тип развёртки : Прогрессивная
Метод сжатия : С потерями
Бит/(Пиксели*Кадры) : 0.274
Размер потока : 1,05 Гбайт (77%)
Библиотека кодирования : DivX 5.2.1 (DrDivX 106) (UTC 2004-09-08)

Аудио
Идентификатор : 1
Формат : AC-3
Формат/Информация : Audio Coding 3
Расширение режима : CM (complete main)
Параметр Endianness формата : Big
Идентификатор кодека : 2000
Продолжительность : 1 ч. 40 м.
Вид битрейта : Постоянный
Битрейт : 448 Кбит/сек
Каналы : 6 каналов
Расположение каналов : Front: L C R, Side: L R, LFE
Частота : 48,0 КГц
Битовая глубина : 16 бит
Метод сжатия : С потерями
Размер потока : 321 Мбайт (23%)
Выравнивание : Разделение по промежуткам
Продолжительность промежутка : 96 мс. (2,40 видеокадра)
Время предзагрузки промежутка : 96 мс.
Язык : Russian

pb.wtf



Скачать Воин севера через торрент http://pic.kartinco.top/images/1/bphde4x81d.jpg Скачать фильм Воин севера через торрент бесплантно в хорошем качестве Описание: Роскошное широкоэкранное представление с захватывающими боевыми сценами, дыханием мистических легенд и загадочными экзотическими ... 5 10 1
Info! Золотая раздача, скачанное не засчитывается.
Торрент: Зарегистрирован [2013-01-03 13:28] · скачан: 229 раз
Статус: √ проверено
Размер: 1.37 GB
Как cкачать? Как скачать Воин севера через торрент | qTorrent

28-11-2019 20:33  

Отключить всю рекламу на сайте

03-01-2013 14:43 Воин севера Скачать торрент  

кто смарел, как фильм?pb.wtf



03-01-2013 15:29 Воин севера Скачать торрент  

Шикарнейший. Посмотреть стоит однозначноpb.wtf



03-01-2013 20:13 Воин севера Скачать торрент  

эстония-финляндия-китай - взрывная смесь должна получиться!

Цитата:

Если вам перебежал дорогу латыш, значит вы - эстонец

Цитата:

Разговор двух прибалтов:
— Уу-рмас, а что эт-то за люд-ди стоят?
— Ааа, эт-то фин-ны бегу-ут…

pb.wtf



03-01-2013 20:14 Воин севера Скачать торрент  

посмотрел название, думал фильм про Викингов или что то в этом роде (((pb.wtf



04-01-2013 10:36 Воин севера Скачать торрент  

Те кто хочет бои с полетами, кровью и т.п. ....не качайте))
Это история реинкарнации любящих душ... В общем, сопли, слезы))
Боевыз сцен 2-3 за весь фильм, да и те короткие и не такие зрелищные.pb.wtf



    Дорогой пользователь! Огромная просьба, поблагодарите релизера, оцените раздачу и оставьте свои комментарий, если Вы скачали Воин севера через торрент бесплатно! Внесите свою лепту в развитие PiratBit!
    Комментировать посты могут только пользователи прошедшие не сложную регистрацию
    Показать сообщения:    

    Воин севера через торрент
    Скачать бесплатно Воин севера
    Воин севера скачать торрент
    Воин севера смотреть онлайн
    Cкачать фильм Воин севера бесплатно
    Воин севера скачать торрент в хорошем качестве
    Воин севера смотреть онлайн бесплатно в хорошем качестве


    Вы не можете начинать темы
    Вы не можете отвечать на сообщения
    Вы не можете редактировать свои сообщения
    Вы не можете удалять свои сообщения
    Вы не можете голосовать в опросах
    Вы не можете прикреплять файлы к сообщениям
    Вы можете скачивать файлы