Ссылка на приватное зеркало нашего сайта всего за 1$. Внимание количество ограничено!!!

2 сезон

iTunes

1 сезон

1

2 сезон

2 сезон

iTunes

1 сезон

RePack

30

Новинка

ВАЖНО

ИГРА 18+

pack

RePack

MK11
pack

Забери бонус

RePack

jed

!!Акция!!

Alien_Rage

RePack

fifa19

RePack

Assassins Creed: Odyssey

RePack

NEED FOR SPEED™ PAYBACK

4 сезон

9 сезон

Бесстыжие 9 сезон

Все сериалы

все сериалы на PB.wtf

RePack

FAR CRY 5
  

крутой (Максим Демченко) [2012 г., Боевик,Мелодрама, SATRip, Оригинал] pb.wtf

крутой через торрент pb.wtf

Размер: 703 MB | Добавлен: 7 лет 10 мес. назад | Торрент скачан:455 раз
Скачать  

05-01-2013 22:24 крутой Скачать торрент  

крутой

Год выпуска: 2013
Страна: Украина
Жанр: Боевик,Мелодрама
Продолжительность: 01:25:20
Перевод: Оригинал

Режиссер: Максим Демченко

В ролях: Максим Дрозд, Анна Лутцева, Сергей Гамов, Михаил Сидаш,Михаил Полосухин, Виктор Смирнов

Описание: Каверин, некогда служивший в ОМОНе, начинает работать на себя – он перевозит грузы и никогда не спрашивает заказчика о том, что внутри. Однажды, доставив груз, Каверин видит, что в чемодане, который он вез – связанная девочка. Люди заказчика похитили ее и Каверин, сам не зная о содержимом посылки, доставил девочку главарю банды. За девочку требуют выкуп, саму же ее хотят убить, чтобы избавиться от свидетеля. Среди бандитов – Брыль – бывший сослуживец и враг Каверина. Каверин вступает в схватку с бандитами, ему удается отбить у них девочку, и скрыться. Каверин, преследуемый бандитами, идущими по пятам, начинает поиск родителей девочки.

Качество: SATRip
Формат: AVI
Видео кодек: XviD
Аудио кодек: MP3
Видео: 640x336 (1.90:1), 25 fps, XviD MPEG-4 ~1010 kbps avg, 0.19 bit/pixel
Аудио#1: 48 kHz, MPEG Layer 3, 2 ch, ~128.00 kbps avg


Полное имя : D:торентыKrytoj.2013.700MB.avi
Формат : AVI
Формат/Информация : Audio Video Interleave
Размер файла : 703 MiB
Продолжительность : 1h 25mn
Общий поток : 1 152 Kbps
Библиотека кодирования : VirtualDub build 33769/release

Video
Идентификатор : 0
Формат : MPEG-4 Visual
Профиль формата : Advanced Simple@L5
Параметр BVOP формата : 2
Параметр QPel формата : No
Параметр GMC формата : No warppoints
Параметр матрицы формата : Default (H.263)
Режим смешивания : Packed bitstream
Идентификатор кодека : XVID
Идентификатор кодека/Подсказка : XviD
Продолжительность : 1h 25mn
Битрейт : 1 011 Kbps
Ширина : 640 pixels
Высота : 336 pixels
Соотношение сторон : 1.905
Частота кадров : 25.000 fps
Цветовое пространство : YUV
Субдискретизация насыщенности : 4:2:0
Битовая глубина : 8 bits
Тип развёртки : Progressive
Метод сжатия : Lossy
Бит/(Пиксели*Кадры) : 0.188
Размер потока : 617 MiB (88%)
Библиотека кодирования : XviD 64

Audio
Идентификатор : 1
Формат : MPEG Audio
Версия формата : Version 1
Профиль формата : Layer 3
Режим : Joint stereo
Расширение режима : MS Stereo
Идентификатор кодека : 55
Идентификатор кодека/Подсказка : MP3
Продолжительность : 1h 25mn
Вид битрейта : Constant
Битрейт : 128 Kbps
Каналы : 2 channels
Частота : 48.0 KHz
Метод сжатия : Lossy
Размер потока : 78.1 MiB (11%)
Выравнивание : Aligned on interleaves
Продолжительность промежутка : 24 ms (0.60 video frame)
Время предзагрузки промежутка : 504 ms
Библиотека кодирования : LAME3.98.2

pb.wtf



Скачать крутой через торрент http://pic.kartinco.top/images/1/damgd4o2gg.jpg Скачать фильм крутой через торрент бесплантно в хорошем качестве Описание: Каверин, некогда служивший в ОМОНе, начинает работать на себя – он перевозит грузы и никогда не спрашивает заказчика о том, что ... 8.7 10 3
Info! Золотая раздача, скачанное не засчитывается.
Торрент: Зарегистрирован [2013-01-05 22:24] · скачан: 455 раз
Статус: √ проверено
Размер: 703 MB
Как cкачать? Как скачать крутой через торрент | qTorrent

% Раздел Тема Автор DL S | L
Action FPS (1st Person) [ 4.09 GB ] Serious Sam 3 / Крутой Сэм 3 2011 [Lossless RePackRUShooter Action TPS] от _xatab_ =Чувак= Скачать
1 | 0
Фильмы до 2000 г. [ 2.05 GB ] Крутые стволы / Mean Guns [1997 DVDRip] [Полная версия / Director's cut] 2x[DVO] + [MVO] killermax2013 Скачать
1 | 0
Азиатские фильмы [ 2.05 GB ] Круто сваренные / Hard Boiled [1992 DVDRip MVO лицензия] jump88 Скачать
1 | 0
Action FPS (1st Person) [ 7.34 GB ] Крутой Сэм Золотое Издание / Serious Sam Gold Edition [RepackENG/RUShooter Action TPS] Baracuda Скачать
4 | 0
Action FPS (1st Person) [ 2.03 GB ] Serious Sam HD: The Second Encounter / Крутой Сэм HD: Второе Пришествие [RePack RU / 3rd Person] Diavol Скачать
2 | 0
Action FPS (1st Person) [ 1.14 GB ] Крутой Сэм HD: Первая кровь / Serious Sam HD: The First Encounter [Цифровая лицензия RUS/ENG/MULTi6 Action / 3D / 1st Person] [Steam-Rip] от R.G. Pirates Games =ItachiUchiha= Скачать
1 | 0
Action FPS (1st Person) [ 948 MB ] Serious Sam HD: The First Encounter / Крутой Сэм HD: Первое Пришествие [RePack RU / 3rd Person] Diavol Скачать
1 | 0

28-11-2019 20:33  

Отключить всю рекламу на сайте

06-01-2013 09:42 крутой Скачать торрент  

Жалкая пародия на Перевозчика!pb.wtf



    Дорогой пользователь! Огромная просьба, поблагодарите релизера, оцените раздачу и оставьте свои комментарий, если Вы скачали крутой через торрент бесплатно! Внесите свою лепту в развитие PiratBit!
    Комментировать посты могут только пользователи прошедшие не сложную регистрацию
    Показать сообщения:    

    крутой через торрент
    Скачать бесплатно крутой
    крутой скачать торрент
    крутой смотреть онлайн
    Cкачать фильм крутой бесплатно
    крутой скачать торрент в хорошем качестве
    крутой смотреть онлайн бесплатно в хорошем качестве


    Вы не можете начинать темы
    Вы не можете отвечать на сообщения
    Вы не можете редактировать свои сообщения
    Вы не можете удалять свои сообщения
    Вы не можете голосовать в опросах
    Вы не можете прикреплять файлы к сообщениям
    Вы можете скачивать файлы