MEGA NEWS Получи личный уникальный адрес сайта и защити себя от блокировок. Внимание количество ограничено!!!

iTunes

1+1

iTunes

мы

iTunes

1

iTunes

Чернобыль

iTunes

Ральф против интернета

Лицензия

ПШазам

Лицензия

Игра престолов

Лицензия

30
pack

ВАЖНО

!!Акция!!

Alien_RageХит недели

RePack

Resident Evil 21

ИГРА 18+

pack

RePack

Metro:Exodus

!!Акция!!

Alien_Rage

RePack

fifa19

RePack

Assassins Creed: Odyssey

RePack

NEED FOR SPEED™ PAYBACK

3 сезон

9 сезон

Бесстыжие 9 сезон

Все сериалы

все сериалы на PB.wtf

RePack

FAR CRY 5
Ребята, катастрофически не хватает 1900р. для оплаты серверов за АВГУСТ (всвязи с блокировками трафик упал в 3 раза), 1-2р., выручайте.
  

Гнев / Rage (Джозеф Мерхи) [1995 г., боевик, триллер, DVDRip, MVO] pb.wtf

Гнев через торрент pb.wtf

Размер: 1.38 GB | Добавлен: 6 лет 9 мес. назад | Торрент скачан:80 раз
Скачать  

06-01-2013 03:23 Гнев Скачать торрент  

Гнев / Rage

Год выпуска: 1995
Страна: США
Жанр: боевик, триллер
Продолжительность: 01:30:38
Перевод: Профессиональный многоголосый

Режиссер: Джозеф Мерхи
Продюссер: Гэри Дэниелс, Скотт МакЭбой, Джозеф Мерхи
Сценарий: Джозеф Джон Барметтлер, Джекобсен Харт

Премьера в мире: 3 ноября 1995

MPAA: R - лицам до 17 лет обязательно присутствие взрослого
IMDb: 5.10 (313)
Кинопоиск: 6.563 290

В ролях: Гэри Дэниелс, Кеннет Тайгар, Фиона Хатчисон, Джиллиан МакУиртер, Питер Джейсон, Марк Меткалф

Описание: Поехал учитель по делам, а к нему ворвался мексиканец с пистолетом, скрывающийся от полиции. Выбора не было — пришлось подчиняться. Их поймали, но «полицейские» доставили его не в участок, а в тайную лабораторию, где нелегальных эмигрантов использовали в качестве подопытных крыс для создания идеальных солдат-убийц, не знающих угрызений совести.

Ему, как и остальным, сделали укол, но скромный с виду учитель оказался специалистом по боевым искусством. И он сбежал…

Доп. информация:
Больше всего меня удивляет тот факт, что такой великолепный боевик с участием Гэри Дэниелса, непревзойденного мастера по боевым искусствам, является совершенно забытым у нас в стране. Пусть даже этот фильм и стоит в рамках категории «Б», но он должен, как минимум, оставаться популярным среди любителей данного жанра и поклонников известных актеров-бойцов. Ведь несмотря на то, что Дэниелс не так популярен, как Ван Дамм или Сигал, в его карьере тоже есть настоящие фильмы-жемчужины, которые захочется пересматривать несметное число раз. И одним из таких фильмов является боевик «Гнев».
Можно сказать, фильм захватывает с первых минут просмотра. Прежде всего тому способствуют многочисленные сцены кровавых перестрелок, зрелищных погонь, интересных поединков, мощных и красочных спецэффектов, напряженная атмосфера, тяжелый саундтрек… Все эти элементы боевика поставлены отлично, и они буквально притягивают зрителя к экрану и не позволяют отрываться от просмотра. Ведь такие моменты, как, например, уход от спецслужб на бензовозе или попытка скрыться от вертолета в небоскребе, просто дух захватывают. Все это было идеально поставлено и снято, и в этом хочется похвалить режиссера и оператора за их труды, которые они вложили, чтобы мы могли смотреть данный фильм с восхищением и огромным интересом.
Получился очень интересный и качественный боевик. Ведь это абсолютно натуральный боевик 90-х, какие в наше время уже давно не снимают. Фильм обязательно стоит посмотреть всем любителям данного жанра. Лично мне фильм доставил массу впечатлений и эмоций, буду рад пересмотреть его в свободное время. Поэтому мне остается поставить фильму достойные…

10 из 10
Качество: DVDRip
Формат: AVI
Видео кодек: XviD
Аудио кодек: AC3
Видео: 720x540 (1.33:1), 25 fps, XviD MPEG-4 ~1984 kbps avg, 0.20 bit/pixel
Аудио#1: 48 kHz, AC3 Dolby Digital, 2/0 (L,R) ch, ~192 kbps
Релиз от: сторонний ресурс










Общее
Полное имя : D:TorrentRage.1995.XviD.DVDRip.сторонний ресурс.avi
Формат : AVI
Формат/Информация : Audio Video Interleave
Профиль формата : OpenDML
Размер файла : 1,38 Гбайт
Продолжительность : 1 ч. 30 м.
Общий поток : 2183 Кбит/сек
Название фильма : DVD_VOLUME.Title1.DVDRip
Программа кодирования : Lavf53.21.0
Формат оригинала/Имя : DVD_VOLUME

Видео
Идентификатор : 0
Формат : MPEG-4 Visual
Профиль формата : Advanced Simple@L5
Параметр BVOP формата : 2
Параметр QPel формата : Нет
Параметр GMC формата : Без точки перехода
Параметр матрицы формата : Default (H.263)
Режим смешивания : Сжатый битовый поток
Идентификатор кодека : XVID
Идентификатор кодека/Подсказка : XviD
Продолжительность : 1 ч. 30 м.
Битрейт : 1979 Кбит/сек
Ширина : 720 пикс.
Высота : 540 пикс.
Соотношение сторон : 4:3
Частота кадров : 25,000 кадр/сек
Цветовое пространство : YUV
Подвыборка цветности : 4:2:0
Битовая глубина : 8 бит
Тип развёртки : Прогрессивная
Метод сжатия : С потерями
Бит/(Пиксели*Кадры) : 0.204
Размер потока : 1,25 Гбайт (91%)
Библиотека кодирования : XviD 1.2.1 (UTC 2008-12-04)

Аудио
Идентификатор : 1
Формат : AC-3
Формат/Информация : Audio Coding 3
Расширение режима : CM (complete main)
Идентификатор кодека : 2000
Продолжительность : 1 ч. 30 м.
Вид битрейта : Постоянный
Битрейт : 192 Кбит/сек
Каналы : 2 канала
Расположение каналов : Front: L R
Частота : 48,0 КГц
Битовая глубина : 16 бит
Метод сжатия : С потерями
Размер потока : 124 Мбайт (9%)
Выравнивание : Соединение по промежуткам
Продолжительность промежутка : 32 мс. (0,80 видеокадр)

pb.wtf



Скачать Гнев через торрент http://pic.kartinco.top/images/1/6ctiph2xwv.jpg Скачать фильм Гнев через торрент бесплантно в хорошем качестве Описание: Поехал учитель по делам, а к нему ворвался мексиканец с пистолетом, скрывающийся от полиции. Выбора не было — пришлось ... 9 10 1
Info! Золотая раздача, скачанное не засчитывается.
Торрент: Зарегистрирован [2013-01-06 03:23] · скачан: 80 раз
Статус: √ проверено
Размер: 1.38 GB
Как cкачать? Как скачать Гнев через торрент | qTorrent

% Раздел Тема Автор DL S | L
Фильмы до 2000 г. [ 1.46 GB ] Безмолвный гнев / Silent Rage [1982 DVDRip двухголосый] Бумер Скачать
1 | 0


>> Регистрируемся здесь <<






Отзывы и комментарии о схеме читаем и пишем здесь: ---> Отзывы и комментарии о схеме

Новые благодарочки в телеграм довольных пользователей:
скриншот   скриншот   скриншот   скриншот   скриншот
    Дорогой пользователь! Огромная просьба, поблагодарите релизера, оцените раздачу и оставьте свои комментарий, если Вы скачали Гнев через торрент бесплатно! Внесите свою лепту в развитие PiratBit!
    Комментировать посты могут только пользователи прошедшие не сложную регистрацию
    Показать сообщения:    

    Гнев через торрент
    Скачать бесплатно Гнев
    Гнев скачать торрент
    Гнев смотреть онлайн
    Cкачать фильм Гнев бесплатно
    Гнев скачать торрент в хорошем качестве
    Гнев смотреть онлайн бесплатно в хорошем качестве


    Вы не можете начинать темы
    Вы не можете отвечать на сообщения
    Вы не можете редактировать свои сообщения
    Вы не можете удалять свои сообщения
    Вы не можете голосовать в опросах
    Вы не можете прикреплять файлы к сообщениям
    Вы можете скачивать файлы