1 сезон

1 сезон

iTunes

1

КиноПоиск HD

Кинопоиск HD

iTunes

13

1 сезон

RePack

30

Новинка

ВАЖНО

ИГРА 18+

pack

RePack

MK11
pack

Легкие деньги

RePack

jed

RePack

fifa19

RePack

RDR2

RePack

NEED FOR SPEED™ PAYBACK

4 сезон

9 сезон

Бесстыжие 9 сезон

Все сериалы

все сериалы на PB.wtf

RePack

FAR CRY 5
  
Magnet ссылка

Последняя пуля / Ultima pallottola (Микеле Соави) [2003 г., боевик, драма, криминал, детектив, DVDRip-AVC, MVO] pb.wtf

Последняя пуля через торрент pb.wtf

Размер: 2.3 GB | Добавлен: 8 лет 3 мес. назад | Торрент скачан:37 раз
Скачать  

06-01-2013 14:38 Последняя пуля Скачать торрент  

Последняя пуля / Ultima pallottola

Год выпуска: 2003
Страна: Италия
Жанр: боевик, драма, криминал, детектив
Продолжительность: 03:07:15
Перевод: Профессиональный многоголосый

Режиссер: Микеле Соави
Продюссер: Пьетро Вальсекки, Сесилия Феррари
Сценарий: Даниэль Чезарано, Паоло Мачесини, Микеле Соави

Премьера в мире: 24 февраля 2003
Релиз на DVD: 25 июня 2009, «Cinema Prestige»



В ролях: Джулио Скарпати, Карло Чекки, Лавиния Гульельман, Антонио Катания, Макс Маззотта, Фабриция Сакки, Нино Д’Агата, Fausto Paravidino, Патриция Пунцо, Алессия Джулиани

Описание: В Генуе убиты несколько девушек-проституток. Расследование, основанное на версии о разборках этнических бандитских группировок, результатов не дает. Комиссар Стефано Риккарди, возглавив оперативную группу, обнаруживает, что во всех случаях прослеживается один почерк, и вскоре выходит на след маньяка. Но тот затевает с Риккарди изощренную и смертельную игру...

Качество: DVDRip-AVC
Формат: MKV
Видео кодек: H.264
Аудио кодек: AC3
Видео: 720x 408 (16:9),25,000fps, AVC MPEG-4 (H.264), ~1370 kbps avg, 0.187 bit/pixel
Аудио#1: русский 48 kHz, AC3 Dolby Digital, 2/0 (L,R) ch, ~192 kbps Профессиональный многоголосый
Аудио#2: итальянский 48 kHz, AC3 Dolby Digital, 2/0 (L,R) ch, ~192 kbps Оригинал
Автор рипа:





Общее
Уникальный идентификатор : 189766729987005849310228860547210509232 (0x8EC3BE265FC48101BB68607B644D7BB0)
Полное имя : H:Ultima pallottola .mkv
Формат : Matroska
Версия формата : Version 2
Размер файла : 2,30 Гбайт
Продолжительность : 3 ч. 7 м.
Общий поток : 1755 Кбит/сек
Дата кодирования : UTC 2013-01-06 12:55:00
Программа кодирования : mkvmerge v4.4.0 ('Die Wiederkehr') сборка от Oct 31 2010 21:52:48
Библиотека кодирования : libebml v1.0.0 + libmatroska v1.0.0

Видео
Идентификатор : 1
Формат : AVC
Формат/Информация : Advanced Video Codec
Профиль формата : High@L4.1
Параметр CABAC формата : Да
Параметр ReFrames формата : 4 кадра
Режим смешивания : Header stripping
Идентификатор кодека : V_MPEG4/ISO/AVC
Продолжительность : 3 ч. 7 м.
Битрейт : 1370 Кбит/сек
Ширина : 720 пикселей
Высота : 408 пикселей
Соотношение сторон : 16:9
Частота кадров : 25,000 кадров/сек
Цветовое пространство : YUV
Субдискретизация насыщенности : 4:2:0
Битовая глубина : 8 бит
Тип развёртки : Прогрессивная
Бит/(Пиксели*Кадры) : 0.187
Размер потока : 1,75 Гбайт (76%)
Библиотека кодирования : x264 core 125 r2200 999b753
Настройки программы : cabac=1 / ref=4 / deblock=1:-2:-1 / analyse=0x3:0x113 / me=umh / subme=10 / psy=1 / psy_rd=1.00:0.20 / mixed_ref=1 / me_range=24 / chroma_me=1 / trellis=2 / 8x8dct=1 / cqm=0 / deadzone=21,11 / fast_pskip=0 / chroma_qp_offset=-3 / threads=6 / lookahead_threads=1 / sliced_threads=0 / nr=0 / decimate=0 / interlaced=0 / bluray_compat=0 / constrained_intra=0 / bframes=4 / b_pyramid=2 / b_adapt=2 / b_bias=0 / direct=3 / weightb=1 / open_gop=0 / weightp=2 / keyint=250 / keyint_min=25 / scenecut=40 / intra_refresh=0 / rc_lookahead=60 / rc=2pass / mbtree=1 / bitrate=1370 / ratetol=1.0 / qcomp=0.60 / qpmin=0 / qpmax=69 / qpstep=4 / cplxblur=20.0 / qblur=0.5 / vbv_maxrate=17500 / vbv_bufsize=14000 / nal_hrd=none / ip_ratio=1.40 / aq=1:1.00
Default : Да
Forced : Нет

Аудио #1
Идентификатор : 2
Формат : AC-3
Формат/Информация : Audio Coding 3
Расширение режима : CM (complete main)
Параметр Endianness формата : Big
Режим смешивания : Header stripping
Идентификатор кодека : A_AC3
Продолжительность : 3 ч. 7 м.
Вид битрейта : Постоянный
Битрейт : 192 Кбит/сек
Каналы : 2 канала
Расположение каналов : Front: L R
Частота : 48,0 КГц
Битовая глубина : 16 бит
Метод сжатия : С потерями
Размер потока : 257 Мбайт (11%)
Язык : Russian
Default : Нет
Forced : Нет

Аудио #2
Идентификатор : 3
Формат : AC-3
Формат/Информация : Audio Coding 3
Расширение режима : CM (complete main)
Параметр Endianness формата : Big
Режим смешивания : Header stripping
Идентификатор кодека : A_AC3
Продолжительность : 3 ч. 7 м.
Вид битрейта : Постоянный
Битрейт : 192 Кбит/сек
Каналы : 2 канала
Расположение каналов : Front: L R
Частота : 48,0 КГц
Битовая глубина : 16 бит
Метод сжатия : С потерями
Размер потока : 257 Мбайт (11%)
Язык : Italian
Default : Да
Forced : Нет


Последняя пуля скачать торрент


pb.wtf



Скачать Последняя пуля через торрент https://pic.kartinco.top/images/1/hs8cvm3h9s.png Скачать фильм Последняя пуля через торрент бесплантно в хорошем качестве Описание: В Генуе убиты несколько девушек-проституток. Расследование, основанное на версии о разборках этнических бандитских группировок, ... 5 10 1
Info! Золотая раздача, скачанное не засчитывается.
Торрент: Зарегистрирован [2013-01-06 14:38] · скачан: 37 раз
Статус: √ проверено
Размер: 2.3 GB
Как cкачать? Как скачать Последняя пуля через торрент | UTorrent

% Раздел Тема Автор DL S | L
Фильмы 2001-2005 [ 1.46 GB ] Последняя пуля / Ultima pallottola [2003 DVDRip] MVO -=Cherry=- Скачать
1 | 0

28-11-2019 20:33  

Отключить всю рекламу на сайте

06-01-2013 14:42 Последняя пуля Скачать торрент  

pb.wtf



08-01-2013 13:13 Последняя пуля Скачать торрент  

lev1244v
Спасибо)) :good2:pb.wtf



09-01-2013 15:52 Последняя пуля Скачать торрент  

lev1244v
Это же часть первая, а вторая есть?pb.wtf



    Дорогой пользователь! Огромная просьба, поблагодарите релизера, оцените раздачу и оставьте свои комментарий, если Вы скачали Последняя пуля через торрент бесплатно! Внесите свою лепту в развитие PiratBit!
    Комментировать посты могут только пользователи прошедшие не сложную регистрацию
    Показать сообщения:    

    Последняя пуля через торрент
    Скачать бесплатно Последняя пуля
    Последняя пуля скачать торрент
    Последняя пуля смотреть онлайн
    Cкачать фильм Последняя пуля бесплатно
    Последняя пуля скачать торрент в хорошем качестве
    Последняя пуля смотреть онлайн бесплатно в хорошем качестве


    Вы не можете начинать темы
    Вы не можете отвечать на сообщения
    Вы не можете редактировать свои сообщения
    Вы не можете удалять свои сообщения
    Вы не можете голосовать в опросах
    Вы не можете прикреплять файлы к сообщениям
    Вы можете скачивать файлы