MEGA SALE -50% FORZA HORIZON 4 ULTIMATE+ВСЕ DLC+ОНЛАЙН всего за 599р. 299 руб. (супер цена). Внимание количество ограничено!!!

iTunes

1+1

iTunes

мы

iTunes

1

iTunes

Чернобыль

iTunes

Ральф против интернета

Лицензия

ПШазам

Лицензия

Игра престолов

Лицензия

30
pack

ВАЖНО

!!Акция!!

Alien_RageХит недели

RePack

Resident Evil 21

ИГРА 18+

pack

RePack

Metro:Exodus

!!Акция!!

Alien_Rage

RePack

fifa19

RePack

Assassins Creed: Odyssey

RePack

NEED FOR SPEED™ PAYBACK

3 сезон

9 сезон

Бесстыжие 9 сезон

Все сериалы

все сериалы на PB.wtf

RePack

FAR CRY 5
Ребята, катастрофически не хватает 7730р. для оплаты серверов за АВГУСТ (всвязи с блокировками трафик упал в 3 раза), 1-2р., выручайте.
  

Ведьмина гора / Race to Witch Mountain (Энди Фикмен) [2009 г., фантастика, триллер, комедия, приключения, семейный, BDRip, DUB (Rus) + DUB (Ukr) + Оригинал] pb.wtf

Ведьмина гора через торрент pb.wtf

Размер: 2.19 GB | Добавлен: 6 лет 8 мес. назад | Торрент скачан:281 раз
Скачать  

06-01-2013 19:38 Ведьмина гора Скачать торрент  

Ведьмина гора / Race to Witch Mountain
«Погоня со скоростью света»

Год выпуска: 2009
Страна: США
Жанр: фантастика, триллер, комедия, приключения, семейный
Продолжительность: 01:38:17
Перевод: Дубляж (Русский) + Дубляж (Украинский) + Оригинал (Английский)

Режиссер: Энди Фикмен
Продюссер: Эндрю Ганн, Марио Искович, Энн Мари Сандерлин
Сценарий: Мэтт Лопез, Марк Бомбэк, Александр Ки

Бюджет: $65 000 000
Премьера в мире: 11 марта 2009

В ролях: Дуэйн Джонсон, Анна-Cофия Робб, Александр Людвиг, Карла Гуджино, Киаран Хиндс, Том Эверетт Скотт, Крис Маркетт, Билли Браун, Гэрри Маршалл, Ким Ричардс

Описание: На протяжении многих лет распространялись рассказы о тайном месте в центре пустыни Невада, известной своими необъяснимыми явлениями и видениями. это место называется Ведьмина гора. И когда в Лас-Вегасе таксист (Дуэйн "Скала" Джонсон) приходит к выводу о сверхъестественных способностях двух подростков-пассажиров, он вдруг обнаруживает себя в центре приключений, которые не может объяснить. Когда они обнаружили, что единственная возможность спасти мир хранится на глубине Ведьминой горы, начинается гонка со временем против всех, кто пытается остановить их - против государства, инопланетян и монстров.

Качество: BDRip (Исходник Blu-Ray Remux)
Формат: AVI
Видео кодек: XviD
Аудио кодек: AC3
Видео: 720х304, 23,976 fps, 1882 kbps, 0.359 bit/pixel
Аудио#1: 48 kHz, AC3 5.1, 448.00 kbps / Дубляж (Русский)
Аудио#2: 48 kHz, AC3 5.1, 448.00 kbps / Дубляж (Украинский)
Аудио#3: 48 kHz, AC3 5.1, 384.00 kbps / Оригинал (Английский)
&
Общее
Полное имя : E:Фильмы МRace to Witch Mountain.2009.BDRip.Rus.Ukr.Eng.avi
Формат : AVI
Формат/Информация : Audio Video Interleave
Профиль формата : OpenDML
Размер файла : 2,19 Гбайт
Продолжительность : 1 ч. 38 м.
Общий поток : 3186 Кбит/сек
Программа кодирования : VirtualDubModRus 1.5.10.2 (build 2542/release)
Библиотека кодирования : VirtualDubMod build 2542/release

Видео
Идентификатор : 0
Формат : MPEG-4 Visual
Профиль формата : Advanced Simple@L5
Параметр BVOP формата : 1
Параметр QPel формата : Нет
Параметр GMC формата : Без точки перехода
Параметр матрицы формата : Выборочная
Режим смешивания : Сжатый битовый поток
Идентификатор кодека : XVID
Идентификатор кодека/Подсказка : XviD
Продолжительность : 1 ч. 38 м.
Битрейт : 1882 Кбит/сек
Ширина : 720 пикселей
Высота : 304 пикселя
Соотношение сторон : 2,35:1
Частота кадров : 23,976 кадра/сек
Цветовое пространство : YUV
Субдискретизация насыщенности : 4:2:0
Битовая глубина : 8 бит
Тип развёртки : Прогрессивная
Метод сжатия : С потерями
Бит/(Пиксели*Кадры) : 0.359
Размер потока : 1,29 Гбайт (59%)
Библиотека кодирования : XviD 65

Аудио #1
Идентификатор : 1
Формат : AC-3
Формат/Информация : Audio Coding 3
Расширение режима : CM (complete main)
Параметр Endianness формата : Big
Идентификатор кодека : 2000
Продолжительность : 1 ч. 38 м.
Вид битрейта : Постоянный
Битрейт : 448 Кбит/сек
Каналы : 6 каналов
Расположение каналов : Front: L C R, Side: L R, LFE
Частота : 48,0 КГц
Битовая глубина : 16 бит
Метод сжатия : С потерями
Размер потока : 315 Мбайт (14%)
Выравнивание : Разделение по промежуткам
Продолжительность промежутка : 42 мс. (1,00 видеокадр)
Время предзагрузки промежутка : 500 мс.
Заголовок : Дубляж (Русский)

Аудио #2
Идентификатор : 2
Формат : AC-3
Формат/Информация : Audio Coding 3
Расширение режима : CM (complete main)
Параметр Endianness формата : Big
Идентификатор кодека : 2000
Продолжительность : 1 ч. 38 м.
Вид битрейта : Постоянный
Битрейт : 448 Кбит/сек
Каналы : 6 каналов
Расположение каналов : Front: L C R, Side: L R, LFE
Частота : 48,0 КГц
Битовая глубина : 16 бит
Метод сжатия : С потерями
Размер потока : 315 Мбайт (14%)
Выравнивание : Разделение по промежуткам
Продолжительность промежутка : 42 мс. (1,00 видеокадр)
Время предзагрузки промежутка : 500 мс.
Заголовок : Дубляж (Украинский)

Аудио #3
Идентификатор : 3
Формат : AC-3
Формат/Информация : Audio Coding 3
Расширение режима : CM (complete main)
Параметр Endianness формата : Big
Идентификатор кодека : 2000
Продолжительность : 1 ч. 38 м.
Вид битрейта : Постоянный
Битрейт : 384 Кбит/сек
Каналы : 6 каналов
Расположение каналов : Front: L C R, Side: L R, LFE
Частота : 48,0 КГц
Битовая глубина : 16 бит
Метод сжатия : С потерями
Размер потока : 270 Мбайт (12%)
Выравнивание : Разделение по промежуткам
Продолжительность промежутка : 42 мс. (1,00 видеокадр)
Время предзагрузки промежутка : 500 мс.
Заголовок : Оригинал (Английский)


Ведьмина гора скачать торрент


pb.wtf



Скачать Ведьмина гора через торрент http://i51.fastpic.ru/big/2013/0106/ca/de886e97047689350016e1018ca9a1ca.jpg Скачать фильм Ведьмина гора через торрент бесплантно в хорошем качестве Описание: На протяжении многих лет распространялись рассказы о тайном месте в центре пустыни Невада, известной своими необъяснимыми ... 9.4 10 5
Info! Золотая раздача, скачанное не засчитывается.
Торрент: Зарегистрирован [2013-01-06 19:38] · скачан: 281 раз
Статус: √ проверено
Размер: 2.19 GB
Как cкачать? Как скачать Ведьмина гора через торрент | qTorrent


>> Регистрируемся здесь <<






Отзывы и комментарии о схеме читаем и пишем здесь: ---> Отзывы и комментарии о схеме

Новые благодарочки в телеграм довольных пользователей:
скриншот   скриншот   скриншот   скриншот   скриншот
    Дорогой пользователь! Огромная просьба, поблагодарите релизера, оцените раздачу и оставьте свои комментарий, если Вы скачали Ведьмина гора через торрент бесплатно! Внесите свою лепту в развитие PiratBit!
    Комментировать посты могут только пользователи прошедшие не сложную регистрацию
    Показать сообщения:    

    Ведьмина гора через торрент
    Скачать бесплатно Ведьмина гора
    Ведьмина гора скачать торрент
    Ведьмина гора смотреть онлайн
    Cкачать фильм Ведьмина гора бесплатно
    Ведьмина гора скачать торрент в хорошем качестве
    Ведьмина гора смотреть онлайн бесплатно в хорошем качестве


    Вы не можете начинать темы
    Вы не можете отвечать на сообщения
    Вы не можете редактировать свои сообщения
    Вы не можете удалять свои сообщения
    Вы не можете голосовать в опросах
    Вы не можете прикреплять файлы к сообщениям
    Вы можете скачивать файлы