1 сезон

1 сезон

iTunes

1

КиноПоиск HD

Кинопоиск HD

iTunes

13

1 сезон

RePack

30

Новинка

ВАЖНО

ИГРА 18+

pack

RePack

MK11
pack

Легкие деньги

RePack

jed

RePack

fifa19

RePack

RDR2

RePack

NEED FOR SPEED™ PAYBACK

4 сезон

9 сезон

Бесстыжие 9 сезон

Все сериалы

все сериалы на PB.wtf

RePack

FAR CRY 5
  
Magnet ссылка

Меч воина / Cheongpung myeongwol / Sword in the Moon (Юй-Сек Ким) [2003 г., боевик, драма, приключения, BDRip, Профессиональный + Оригинал] pb.wtf

Меч воина через торрент pb.wtf

Размер: 2.05 GB | Добавлен: 8 лет 3 мес. назад | Торрент скачан:154 раза
Скачать  

09-01-2013 15:38 Меч воина Скачать торрент  

Меч воина / Cheongpung myeongwol / Sword in the Moon

Год выпуска: 2003
Страна: Корея Южная
Жанр: боевик, драма, приключения
Продолжительность: 01:38:39
Перевод: Профессиональный (двухголосый закадровый) + Оригинал (Корейский)

Режиссер: Юй-Сек Ким
Сценарий: Мин-сок Янг

Премьера в мире: 16 июля 2003

В ролях: Мин-су Чой, Яе-хьон Джо, Ким Бо-кьенг, Чонь-су Ли, Йон-су Ю, Чу-бонь Джи

Описание: 1628 год, Сеул. Два бесстрашных воина, давшие друг другу братскую клятву, становятся верными слугами великой династии Чосон. Юн защищает границы могучего царства, а Чои командует личной стражей монарха. Корея, раздираемая войнами за Влacть, давно не знает покоя, и когда могущественные враги силой заставляют Юна напасть на царский дворец, он вынужден подчиниться. В пылу кровавой схватки, Юн смертельно ранит брата…
Спустя 5 лет Юн, ставший главнокомандующим армий нового правителя, встревожен загадочными событиями. Таинственный убийца безжалостно уничтожает высшую знать страны. Никто не видел его лица, никто не знает его намерений, лишь иероглифы на клинке неуловимого воина-одиночки подсказывают, что он служил свергнутому вождю. Вскоре Юна, преследующего неуловимого убийцу, начинают мучить страшные подозрения: Чои, которого он убил много лет назад, вернулся, чтобы свершить свою месть.

Качество: BDRip (Исходник BD-Remux)
Формат: AVI
Видео кодек: XviD
Аудио кодек: AC3
Видео: 720х304, 24,000 fps, 2059 kbps, 0.392 bit/pixel
Аудио#1: 48 kHz, AC3 5.1, 448.00 kbps / Профессиональный (двухголосый закадровый)
Аудио#2: 48 kHz, AC3 5.1, 448.00 kbps / Оригинал (Корейский)
&
Общее
Полное имя : E:Фильмы МSword in the Moon.2003.BDRip.avi
Формат : AVI
Формат/Информация : Audio Video Interleave
Профиль формата : OpenDML
Размер файла : 2,05 Гбайт
Продолжительность : 1 ч. 38 м.
Общий поток : 2974 Кбит/сек
Программа кодирования : VirtualDubModRus 1.5.10.2 (build 2542/release)
Библиотека кодирования : VirtualDubMod build 2542/release

Видео
Идентификатор : 0
Формат : MPEG-4 Visual
Профиль формата : Advanced Simple@L5
Параметр BVOP формата : 1
Параметр QPel формата : Нет
Параметр GMC формата : Без точки перехода
Параметр матрицы формата : Выборочная
Режим смешивания : Сжатый битовый поток
Идентификатор кодека : XVID
Идентификатор кодека/Подсказка : XviD
Продолжительность : 1 ч. 38 м.
Битрейт : 2059 Кбит/сек
Ширина : 720 пикселей
Высота : 304 пикселя
Соотношение сторон : 2,35:1
Частота кадров : 24,000 кадра/сек
Цветовое пространство : YUV
Субдискретизация насыщенности : 4:2:0
Битовая глубина : 8 бит
Тип развёртки : Прогрессивная
Метод сжатия : С потерями
Бит/(Пиксели*Кадры) : 0.392
Размер потока : 1,42 Гбайт (69%)
Библиотека кодирования : XviD 65

Аудио #1
Идентификатор : 1
Формат : AC-3
Формат/Информация : Audio Coding 3
Расширение режима : CM (complete main)
Параметр Endianness формата : Big
Идентификатор кодека : 2000
Продолжительность : 1 ч. 38 м.
Вид битрейта : Постоянный
Битрейт : 448 Кбит/сек
Каналы : 6 каналов
Расположение каналов : Front: L C R, Side: L R, LFE
Частота : 48,0 КГц
Битовая глубина : 16 бит
Метод сжатия : С потерями
Размер потока : 316 Мбайт (15%)
Выравнивание : Разделение по промежуткам
Продолжительность промежутка : 42 мс. (1,00 видеокадр)
Время предзагрузки промежутка : 500 мс.
Заголовок : Профессиональный (двухголосый закадровый)

Аудио #2
Идентификатор : 2
Формат : AC-3
Формат/Информация : Audio Coding 3
Расширение режима : CM (complete main)
Параметр Endianness формата : Big
Идентификатор кодека : 2000
Продолжительность : 1 ч. 38 м.
Вид битрейта : Постоянный
Битрейт : 448 Кбит/сек
Каналы : 6 каналов
Расположение каналов : Front: L C R, Side: L R, LFE
Частота : 48,0 КГц
Битовая глубина : 16 бит
Метод сжатия : С потерями
Размер потока : 316 Мбайт (15%)
Выравнивание : Разделение по промежуткам
Продолжительность промежутка : 42 мс. (1,00 видеокадр)
Время предзагрузки промежутка : 500 мс.
Заголовок : Оригинал (Корейский)


Меч воина скачать торрент


pb.wtf



Скачать Меч воина через торрент http://i54.fastpic.ru/big/2013/0109/fe/19c2e67dcecb28e28a3866f3f35b98fe.png Скачать фильм Меч воина через торрент бесплантно в хорошем качестве Описание: 1628 год, Сеул. Два бесстрашных воина, давшие друг другу братскую клятву, становятся верными слугами великой династии Чосон. Юн ... 10 10 2
Info! Золотая раздача, скачанное не засчитывается.
Торрент: Зарегистрирован [2013-01-09 15:38] · скачан: 154 раз
Статус: √ проверено
Размер: 2.05 GB
Как cкачать? Как скачать Меч воина через торрент | UTorrent

28-11-2019 20:33  

Отключить всю рекламу на сайте

09-01-2013 18:42 Меч воина Скачать торрент  

А где рейтинги кинопоиска и imdb?
pb.wtf



09-01-2013 19:51 Меч воина Скачать торрент  

этот ворос будет правильно адресовать не к релизёру...pb.wtf



    Дорогой пользователь! Огромная просьба, поблагодарите релизера, оцените раздачу и оставьте свои комментарий, если Вы скачали Меч воина через торрент бесплатно! Внесите свою лепту в развитие PiratBit!
    Комментировать посты могут только пользователи прошедшие не сложную регистрацию
    Показать сообщения:    

    Меч воина через торрент
    Скачать бесплатно Меч воина
    Меч воина скачать торрент
    Меч воина смотреть онлайн
    Cкачать фильм Меч воина бесплатно
    Меч воина скачать торрент в хорошем качестве
    Меч воина смотреть онлайн бесплатно в хорошем качестве


    Вы не можете начинать темы
    Вы не можете отвечать на сообщения
    Вы не можете редактировать свои сообщения
    Вы не можете удалять свои сообщения
    Вы не можете голосовать в опросах
    Вы не можете прикреплять файлы к сообщениям
    Вы можете скачивать файлы