Мега распродажа FORZA HORIZON 4 ULTIMATE+ВСЕ DLC+ОНЛАЙН всего за 499р. 349 руб. (супер цена). Внимание количество ограничено!!!

Лицензия

30

iTunes

мы

iTunes

1

1 сезон

Чернобыль

1 сезон

Ральф против интернета

MVO

Покемон. Детектив Пикачу

8 сезон

Игра престолов

iTunes

1+1

ИГРА 18+

pack

ВАЖНО

!!Акция!!

Alien_RageХит недели

RePack

Resident Evil 21
pack

RePack

Metro:Exodus

!!Акция!!

Alien_Rage

RePack

fifa19

RePack

Assassins Creed: Odyssey

RePack

NEED FOR SPEED™ PAYBACK

3 сезон

9 сезон

Бесстыжие 9 сезон

Все сериалы

все сериалы на PB.wtf

RePack

FAR CRY 5
Ребята, катастрофически не хватает 2730р. для оплаты серверов за МАЙ (всвязи с блокировками трафик упал в 3 раза), 1-2р., выручайте.
  

Возвращение оборотня / Maneater (Майкл Эмануэл) [2009 г., ужасы, DVDRip, MVO, лицензия] pb.wtf

Возвращение оборотня через торрент pb.wtf

Размер: 1.45 GB | Добавлен: 6 лет 5 мес. назад | Торрент скачан:137 раз
Скачать  

10-01-2013 05:49 Возвращение оборотня Скачать торрент  

Возвращение оборотня / Maneater

Год выпуска: 2009
Страна: США
Жанр: ужасы
Продолжительность: 01:27:05
Перевод: Профессиональный многоголосый, Лицензия
Субтитры: Отсутствуют

Режиссер: Майкл Эмануэл
Продюссер: Майкл Эмануэл, Келли Хирано, Эрик Леуолд
Сценарий: Джон К. Андерсон, Майкл Эмануэл

Мировой рейтинг IMDB 4.20 (232)


В ролях: Дин Кэйн, Лэси Филлипс, Стефен Лунсфорд, Кристофер Дарга, Николь Мур, Максимиллиан Роуг, Элли Гербер, Саджино Грант, Конрад Дженис, Донна В. Скотт

Описание: Эта история разворачивается в городке рядом с резервацией индейцев. Шериф Гарри Бейли ведет расследование серии страшных убийств местных жителей, чьи растерзанные тела были найдены в лесу. Вскоре до него доходят слухи, что индейцы поговаривают о возвращении оборотня — персонажа древних легенд племени. История гласит, что тот, кто пожелает вечной жизни, может провести таинственный обряд и получить желаемое.Только в придачу к бессмертию, он получает еще неутолимую жажду крови и вынужден постоянно убивать. По началу Гарри не принимает всерьез эти сказки, пока события не начинают все больше убеждать его в мистической подоплеке происходящего. И вскоре появляются улики, которые указывают... на самого шерифа!

Качество: DVDRip
Формат: AVI
Видео кодек: XviD
Аудио кодек: AC3
Видео: 720x304 (2.37:1), 25 fps, XviD build 50 ~1990 kbps avg, 0.36 bit/pixel
Аудио#1: 48 kHz, AC3 Dolby Digital, 3/2 (L,C,R,l,r) + LFE ch, ~384 kbps
скриншот   скриншот   скриншот   скриншот   скриншот   скриншот  

Общее
Полное имя : F:ЗакачкиVozvrashenie.Oborotnya.2009.DVDRip.avi
Формат : AVI
Формат/Информация : Audio Video Interleave
Размер файла : 1,45 Гбайт
Продолжительность : 1 ч. 27 м.
Общий поток : 2384 Кбит/сек
Программа кодирования : VirtualDubMod 1.5.10.3 | www.virtualdub-fr.org || (build 2550/release)
Библиотека кодирования : VirtualDubMod build 2550/release

Видео
Идентификатор : 0
Формат : MPEG-4 Visual
Профиль формата : Advanced Simple@L5
Параметр BVOP формата : 2
Параметр QPel формата : Нет
Параметр GMC формата : Без точки перехода
Параметр матрицы формата : Default (H.263)
Идентификатор кодека : XVID
Идентификатор кодека/Подсказка : XviD
Продолжительность : 1 ч. 27 м.
Битрейт : 1990 Кбит/сек
Ширина : 720 пикселей
Высота : 304 пикселя
Соотношение сторон : 2,35:1
Частота кадров : 25,000 кадров/сек
Цветовое пространство : YUV
Субдискретизация насыщенности : 4:2:0
Битовая глубина : 8 бит
Тип развёртки : Прогрессивная
Метод сжатия : С потерями
Бит/(Пиксели*Кадры) : 0.364
Размер потока : 1,21 Гбайт (83%)
Библиотека кодирования : XviD 1.2.1 (UTC 2008-12-04)

Аудио
Идентификатор : 1
Формат : AC-3
Формат/Информация : Audio Coding 3
Расширение режима : CM (complete main)
Идентификатор кодека : 2000
Продолжительность : 1 ч. 27 м.
Вид битрейта : Постоянный
Битрейт : 384 Кбит/сек
Каналы : 6 каналов
Расположение каналов : Front: L C R, Side: L R, LFE
Частота : 48,0 КГц
Битовая глубина : 16 бит
Метод сжатия : С потерями
Размер потока : 239 Мбайт (16%)
Выравнивание : Разделение по промежуткам
Продолжительность промежутка : 40 мс. (1,00 видеокадр)
Время предзагрузки промежутка : 500 мс.


Возвращение оборотня скачать торрент


pb.wtf



Скачать Возвращение оборотня через торрент http://i54.fastpic.ru/big/2013/0109/9a/6d0005ae0b2197915c7732394b5dae9a.jpg Скачать фильм Возвращение оборотня через торрент бесплантно в хорошем качестве Описание: Эта история разворачивается в городке рядом с резервацией индейцев. Шериф Гарри Бейли ведет расследование серии страшных убийств ... 10 10 4
Info! Золотая раздача, скачанное не засчитывается.
Торрент: Зарегистрирован [2013-01-10 05:49] · скачан: 137 раз
Статус: √ проверено
Размер: 1.45 GB
Как cкачать? Как скачать Возвращение оборотня через торрент | qTorrent

% Раздел Тема Автор DL S | L
Фильмы 2009 [ 1.46 GB ] Возвращение оборотня / Maneater [2009 DVDRip ] VintMosina Скачать
1 | 0


>> Регистрируемся здесь <<






Отзывы и комментарии о схеме читаем и пишем здесь: ---> Отзывы и комментарии о схеме

Новые благодарочки в телеграм довольных пользователей:
скриншот   скриншот   скриншот   скриншот   скриншот

10-01-2013 08:55 Возвращение оборотня Скачать торрент  

Народ, кто смотрел? Скажите качать или нет?pb.wtf



10-01-2013 11:26 Возвращение оборотня Скачать торрент  

Националист писал(а):

Народ, кто смотрел? Скажите качать или нет?

прочитай на кинопоиске, там откровенно написано...pb.wtf



    Дорогой пользователь! Огромная просьба, поблагодарите релизера, оцените раздачу и оставьте свои комментарий, если Вы скачали Возвращение оборотня через торрент бесплатно! Внесите свою лепту в развитие PiratBit!
    Комментировать посты могут только пользователи прошедшие не сложную регистрацию
    Показать сообщения:    

    Возвращение оборотня через торрент
    Скачать бесплатно Возвращение оборотня
    Возвращение оборотня скачать торрент
    Возвращение оборотня смотреть онлайн
    Cкачать фильм Возвращение оборотня бесплатно
    Возвращение оборотня скачать торрент в хорошем качестве
    Возвращение оборотня смотреть онлайн бесплатно в хорошем качестве


    Вы не можете начинать темы
    Вы не можете отвечать на сообщения
    Вы не можете редактировать свои сообщения
    Вы не можете удалять свои сообщения
    Вы не можете голосовать в опросах
    Вы не можете прикреплять файлы к сообщениям
    Вы можете скачивать файлы