Всегда рабочее зеркало без VPN и Proxy просто перед .vidak.icu напиши любое слово или цифру, Пример http://oowy.vidak.icu

iTunes

2 сезон

1 сезон

1

1 сезон

iTunes

2 сезон

13

1 сезон

Deluxe

pack

Рекомендуем

Пиратка

30

ВАЖНО

RePack

MK11

RePack

jed

RePack

fifa19

RePack

RDR2

RePack

NEED FOR SPEED™ PAYBACK

Кинопоиск HD

6 сезон

 Острые козырьки 6 сезон

Все сериалы

все сериалы на PB.wtf

RePack

FAR CRY 5

Anonymous, нам критически не хватает 5601 руб. на оплату серверов и переферии за Апрель, помоги нам пожалуйста, вся надежда только на тебя. В благодарность мы отключим тебе всю рекламу на сайте!

×
  
Magnet ссылка

Тони Эрдманн / Toni Erdmann (Марен Аде / Maren Ade) [2016, драма, комедия, BDRip 1080p] [AVO] (Ю.Сербин) + [MVO] pb.wtf

Тони Эрдманн через торрент pb.wtf

Размер: 20.99 GB | Добавлен: 5 лет назад | Торрент скачан:7 раз
Смотреть онлайн Тони Эрдманн | Скачать    Ребята, помогите собрать деньги на оплату серверов!!!

03-05-2017 19:44 Тони Эрдманн Скачать торрент  

Тони Эрдманн / Toni Erdmann Год выпуска: 2016
Страна: Германия, Австрия
Жанр: драма, комедия
Продолжительность: 02:42:35
Перевод 1: Авторский (одноголосый закадровый) | Ю. Сербин
Перевод 2: Профессиональный (многоголосый закадровый) | iTunes Russia
Cубтитры: Russian (kornickolay),Russian (porcellus), English (for non-english parts), English (Full), German (for non-german parts), German (Full), German (SDH)
Оригинальная аудиодорожка: немецкий

Режиссер: Марен Аде / Maren Ade

В ролях: Сандра Хюллер, Петер Симонишек, Михаэль Виттенборн, Томас Лойбл, Тристан Пюттер, Ингрид Бису

Описание: Бывший учитель музыки, весельчак и выдумщик Винфред, решает наладить отношения с дочерью, успешным бизнес-консультантом одной из престижных корпораций. Чтобы завладеть ее вниманием, он выдает себя за эксцентричного бизнесмена Тони Эрдманна. Своими уморительными и шокирующими выходками он надеется изменить ее представление о жизни и завоевать место в ее сердце.



Релиз:
by delia

Качество видео: BDRip | Рип от SbR
Формат видео: MKV
Видео: 1920x1040 at 24 fps,x264@L4.1, ~14538 kbps avg
Аудио 1: Russian: 48 kHz/16-bit, DTS 5.1, ~1509.00 kbps avg |Ю. Сербин|
Аудио 2: Russian: 48 kHz, AC3, 3/2 (L,C,R,l,r) + LFE ch, ~384.00 kbps avg |iTunes Russia|
Аудио 3: German: 48 kHz/16-bit, DTS 5.1, ~1509.00 kbps avg
Аудио 4: German: 48 kHz/16-bit, FLAC 2.0, ~535.00 kbps avg
Format                      : Matroska
Format version              : Version 4 / Version 2
File size                   : 21.0 GiB
Duration                    : 2 h 42 min
Overall bit rate mode       : Variable
Overall bit rate            : 18.5 Mb/s
Encoded date                : UTC 2017-05-03 07:00:03
Writing application         : mkvmerge v11.0.0 ('Alive') 64bit
Writing library             : libebml v1.3.4 + libmatroska v1.4.5
Cover                       : Yes
Attachments                 : cover.jpg
Video
ID                          : 1
Format                      : AVC
Format/Info                 : Advanced Video Codec
Format profile              : High@L4.1
Format settings, CABAC      : Yes
Format settings, ReFrames   : 4 frames
Codec ID                    : V_MPEG4/ISO/AVC
Duration                    : 2 h 42 min
Bit rate                    : 14.5 Mb/s
Width                       : 1 920 pixels
Height                      : 1 040 pixels
Display aspect ratio        : 1.85:1
Frame rate mode             : Constant
Frame rate                  : 24.000 FPS
Color space                 : YUV
Chroma subsampling          : 4:2:0
Bit depth                   : 8 bits
Scan type                   : Progressive
Bits/(Pixel*Frame)          : 0.304
Stream size                 : 16.5 GiB (79%)
Writing library             : x264 core 148 r2762+56 6284cf3 t_mod_Custom [8-bit@all X86_64]
Encoding settings           : cabac=1 / ref=4 / deblock=1:-3:-3 / analyse=0x3:0x133 / me=umh / subme=10 / psy=1 / fade_compensate=0.00 / psy_rd=1.00:0.05 / mixed_ref=1 / me_range=48 / chroma_me=1 / trellis=2 / 8x8dct=1 / cqm=0 / deadzone=21,11 / fast_pskip=1 / chroma_qp_offset=-3 / threads=6 / lookahead_threads=1 / sliced_threads=0 / nr=0 / decimate=1 / interlaced=0 / bluray_compat=0 / constrained_intra=0 / fgo=0 / bframes=8 / b_pyramid=2 / b_adapt=2 / b_bias=0 / direct=3 / weightb=1 / open_gop=0 / weightp=2 / keyint=250 / keyint_min=23 / scenecut=40 / intra_refresh=0 / rc=2pass / mbtree=0 / bitrate=14545 / ratetol=1.0 / qcomp=0.60 / qpmin=0:0:0 / qpmax=69:69:69 / qpstep=4 / cplxblur=20.0 / qblur=0.5 / ip_ratio=1.30 / pb_ratio=1.20 / aq=3:0.80 / aq-sensitivity=10.00 / aq-factor=1.00:1.00:1.00 / aq2=1:0.55 / aq2-sensitivity=15.00 / aq2-factor=1.00:1.00:1.00 / aq3=1:[0.55:0.55]:[0.55:0.55]:[0.55:0.55]:[0.55:0.55] / aq3-sensitivity=10.00 / aq3-factor=[1.00:1.00]:[1.00:1.00]:[1.00:1.00] / aq3-boundary=192:64:24
Language                    : English
Default                     : Yes
Forced                      : No
Color range                 : Limited
Matrix coefficients         : BT.709
Audio #1
ID                          : 2
Format                      : DTS
Format/Info                 : Digital Theater Systems
Mode                        : 16
Format settings, Endianness : Big
Codec ID                    : A_DTS
Duration                    : 2 h 42 min
Bit rate mode               : Constant
Bit rate                    : 1 509 kb/s
Channel(s)                  : 6 channels
Channel positions           : Front: L C R, Side: L R, LFE
Sampling rate               : 48.0 kHz
Frame rate                  : 93.750 FPS (512 spf)
Bit depth                   : 24 bits
Compression mode            : Lossy
Stream size                 : 1.71 GiB (8%)
Title                       : |Одноголосый закадровый, Ю. Сербин
Language                    : Russian
Default                     : Yes
Forced                      : No
Audio #2
ID                          : 3
Format                      : AC-3
Format/Info                 : Audio Coding 3
Format settings, Endianness : Big
Codec ID                    : A_AC3
Duration                    : 2 h 42 min
Bit rate mode               : Constant
Bit rate                    : 384 kb/s
Channel(s)                  : 6 channels
Channel positions           : Front: L C R, Side: L R, LFE
Sampling rate               : 48.0 kHz
Frame rate                  : 31.250 FPS (1536 spf)
Bit depth                   : 16 bits
Compression mode            : Lossy
Stream size                 : 446 MiB (2%)
Title                       : Многоголосый закадровый, iTunes Russia|
Language                    : Russian
Service kind                : Complete Main
Default                     : No
Forced                      : No
Audio #3
ID                          : 4
Format                      : DTS
Format/Info                 : Digital Theater Systems
Mode                        : 16
Format settings, Endianness : Big
Codec ID                    : A_DTS
Duration                    : 2 h 42 min
Bit rate mode               : Constant
Bit rate                    : 1 509 kb/s
Channel(s)                  : 6 channels
Channel positions           : Front: L C R, Side: L R, LFE
Sampling rate               : 48.0 kHz
Frame rate                  : 93.750 FPS (512 spf)
Bit depth                   : 24 bits
Compression mode            : Lossy
Stream size                 : 1.71 GiB (8%)
Language                    : German
Default                     : No
Forced                      : No
Audio #4
ID                          : 5
Format                      : FLAC
Format/Info                 : Free Lossless Audio Codec
Codec ID                    : A_FLAC
Duration                    : 2 h 42 min
Bit rate mode               : Variable
Bit rate                    : 534 kb/s
Channel(s)                  : 2 channels
Channel positions           : Front: L R
Sampling rate               : 48.0 kHz
Frame rate                  : 11.719 FPS (4096 spf)
Bit depth                   : 16 bits
Stream size                 : 621 MiB (3%)
Writing library             : libFLAC 1.2.1 (UTC 2007-09-17)
Language                    : German
Default                     : No
Forced                      : No
Text #1
ID                          : 6
Format                      : UTF-8
Codec ID                    : S_TEXT/UTF8
Codec ID/Info               : UTF-8 Plain Text
Duration                    : 2 h 35 min
Bit rate                    : 68 b/s
Count of elements           : 1574
Stream size                 : 78.7 KiB (0%)
Title                       : kornickolay
Language                    : Russian
Default                     : No
Forced                      : No
Text #2
ID                          : 7
Format                      : UTF-8
Codec ID                    : S_TEXT/UTF8
Codec ID/Info               : UTF-8 Plain Text
Duration                    : 2 h 35 min
Bit rate                    : 70 b/s
Count of elements           : 1227
Stream size                 : 80.9 KiB (0%)
Title                       : porcellus
Language                    : Russian
Default                     : No
Forced                      : No
Text #3
ID                          : 8
Format                      : UTF-8
Codec ID                    : S_TEXT/UTF8
Codec ID/Info               : UTF-8 Plain Text
Duration                    : 2 h 34 min
Bit rate                    : 22 b/s
Count of elements           : 870
Stream size                 : 25.5 KiB (0%)
Language                    : English
Default                     : No
Forced                      : No
Text #4
ID                          : 9
Format                      : UTF-8
Codec ID                    : S_TEXT/UTF8
Codec ID/Info               : UTF-8 Plain Text
Duration                    : 2 h 34 min
Bit rate                    : 38 b/s
Count of elements           : 1374
Stream size                 : 43.8 KiB (0%)
Language                    : English
Default                     : No
Forced                      : No
Text #5
ID                          : 10
Format                      : UTF-8
Codec ID                    : S_TEXT/UTF8
Codec ID/Info               : UTF-8 Plain Text
Duration                    : 2 h 23 min
Bit rate                    : 16 b/s
Count of elements           : 512
Stream size                 : 17.0 KiB (0%)
Language                    : German
Default                     : No
Forced                      : No
Text #6
ID                          : 11
Format                      : UTF-8
Codec ID                    : S_TEXT/UTF8
Codec ID/Info               : UTF-8 Plain Text
Duration                    : 2 h 40 min
Bit rate                    : 45 b/s
Count of elements           : 1673
Stream size                 : 53.9 KiB (0%)
Language                    : German
Default                     : No
Forced                      : No
Text #7
ID                          : 12
Format                      : UTF-8
Codec ID                    : S_TEXT/UTF8
Codec ID/Info               : UTF-8 Plain Text
Duration                    : 2 h 41 min
Bit rate                    : 50 b/s
Count of elements           : 1813
Stream size                 : 59.2 KiB (0%)
Language                    : German
Default                     : No
Forced                      : No
Menu
00:00:00.000                : en:00:00:00.000
00:14:38.500                : en:00:14:38.500
00:29:45.416                : en:00:29:45.416
00:42:42.166                : en:00:42:42.166
00:52:54.708                : en:00:52:54.708
01:11:43.041                : en:01:11:43.041
01:17:46.541                : en:01:17:46.541
01:36:50.791                : en:01:36:50.791
01:46:27.291                : en:01:46:27.291
01:55:13.708                : en:01:55:13.708
02:07:02.833                : en:02:07:02.833
02:22:18.416                : en:02:22:18.416
pb.wtf



Скачать Тони Эрдманн через торрент http://i91.fastpic.ru/big/2017/0503/40/1d9ba5fd59c44fcde3b8518cffe98240.jpg Скачать, смотреть онлайн Тони Эрдманн бесплантно в хорошем качестве Описание: Бывший учитель музыки, весельчак и выдумщик Винфред, решает наладить отношения с дочерью, успешным бизнес-консультантом одной из ... 7.7 10 3
Info! Золотая раздача, скачанное не засчитывается.
Торрент: Зарегистрирован [2017-05-03 19:44] · скачан: 7 раз
Статус: √ проверено
Размер: 20.99 GB
Как cкачать? Как скачать Тони Эрдманн через торрент | UTorrent

% Раздел Тема Автор DL S | L
Фильмы 2016 [DVDrip, WEB-DLRip, HDrip] (DUB, MVO) [ 2.11 GB ] Тони Эрдманн / Toni Erdmann [2016 BDRip] многоголосый Twi7ter Скачать
1 | 0
Фильмы 2016 [DVDrip, WEB-DLRip, HDrip] (DUB, MVO) [ 1.46 GB ] Тони Эрдманн / Toni Erdmann [2016 BDRip] многоголосый Twi7ter Скачать
1 | 0

28-11-2019 20:33  

Отключить всю рекламу на сайте

    Дорогой пользователь! Огромная просьба, поблагодарите релизера, оцените раздачу и оставьте свои комментарий, если Вы скачали Тони Эрдманн через торрент бесплатно!
    Комментировать посты могут только пользователи прошедшие не сложную регистрацию
    Показать сообщения:    

    Тони Эрдманн через торрент
    Скачать бесплатно Тони Эрдманн
    Тони Эрдманн скачать торрент
    Тони Эрдманн смотреть онлайн
    Cкачать фильм Тони Эрдманн бесплатно
    Тони Эрдманн скачать торрент в хорошем качестве
    Тони Эрдманн смотреть онлайн бесплатно в хорошем качестве


    Вы не можете начинать темы
    Вы не можете отвечать на сообщения
    Вы не можете редактировать свои сообщения
    Вы не можете удалять свои сообщения
    Вы не можете голосовать в опросах
    Вы не можете прикреплять файлы к сообщениям
    Вы можете скачивать файлы