Всегда рабочее зеркало без VPN и Proxy просто перед .vidak.icu напиши любое слово или цифру, Пример http://r49f.vidak.icu

MVO

MVO

1 сезон

1

1 сезон

iTunes

1 сезон

13

1 сезон

Deluxe

pack

Рекомендуем

Repack

30

ВАЖНО

RePack

MK11

RePack

jed

RePack

fifa19

RePack

RDR2

RePack

NEED FOR SPEED™ PAYBACK

Кинопоиск HD

6 сезон

 Острые козырьки 6 сезон

Все сериалы

все сериалы на PB.wtf

RePack

FAR CRY 5
  
Magnet ссылка

Гранд Тур / The Grand Tour / Сезон 2 / Серии 1-11 из 11 [2017., Авто-шоу, WEBRip 720p] [MVO] (AlexFilm) pb.wtf

Гранд Тур через торрент pb.wtf

Раздают: 1 [ 0 KB/s ]
Размер: 24.99 GB | Добавлен: 4 года 5 мес. назад | Торрент скачан:169 раз
Смотреть онлайн Гранд Тур | Скачать    Ребята, помогите собрать деньги на оплату серверов!!!

09-12-2017 15:16 Гранд Тур Скачать торрент  

ГРАНД ТУР / THE GRAND TOUR

Дата выпуска: 2017
Страна: Великобритания
Производство: Amazon
Жанр: Авто-шоу
Продолжительность: ~ 01:10:00
Перевод: Профессиональный (многоголосый закадровый) [AlexFilm]
Субтитры: Английские

Режиссер: Phil Churchward

Ведущие: Джереми Кларксон, Ричард Хаммонд и Джэймс Мэй

Описание: Предлагаем вашему вниманию долгожданный многими фанатами автомобилей проект с легендарными ведущими Джереми Кларксоном, Джеймом Мэйем и Ричардом Хаммондом. В центре внимания проекта оказываются автомобили со всего света. Ведущие отправляются в большое путешествие по миру, чтобы найти раритетные модели авто или же невероятные суперкары. В каждом новом городе будет снят очередной эпизод этого шоу, а ведущие проведут тест драйв местных автомобилей, рассказав о них кое-что по-настоящему интересное. На улице любителей "Топ Гира" огромный праздник - "Гранд Тур" вашему вниманию!

rating

Перевод: Константин Кривоногов
Монтаж и сведение звука: Алексей Фокин
Роли озвучивали:
Екатерина Муравицкая
Андрей Стакионис
Константин Погодаев
Дмитрий Лунёв
Кирилл Патрино


Качество: WEBRip 720 Amazon (*AMZN.WEBRip.DD5.1.x264-NTb)
Формат: MKV
Видео кодек: h.264
Аудио кодек: AC3
Видео: AVC, 1280×720 at 23.976 fps, ~3700 kbps avg, ~0.282 bit/pixel
Аудио Rus: 48 kHz, AC3 Dolby Digital, 3/2 (L,C,R,l,r) + LFE ch, ~384.00 kbps
Аудио Eng: 48 kHz, AC3 Dolby Digital, 3/2 (L,C,R,l,r) + LFE ch, ~384.00 kbps
General
Unique ID : 186805044513581106886914197329310599345 (0x8C8957C83CC39F29901FF5046B8348B1)
Complete name : E:\The Grand Tour - Season 2 (AlexFilm) WEBRip 720p\The.Grand.Tour.s02e01.WEBRip.720p.Rus.Eng.AlexFilm.mkv
Format : Matroska
Format version : Version 4 / Version 2
File size : 2.27 GiB
Duration : 1 h 10 min
Overall bit rate mode : Variable
Overall bit rate : 4 641 kb/s
Movie name : The Grand Tour 2x01 @ AlexFilm
Encoded date : UTC 2017-12-09 12:04:45
Writing application : mkvmerge v7.1.0 ('Good Love') 64bit built on Jul 27 2014 13:06:55
Writing library : libebml v1.3.0 + libmatroska v1.4.1

Video
ID : 1
Format : AVC
Format/Info : Advanced Video Codec
Format profile : [email protected]
Format settings : CABAC / 5 Ref Frames
Format settings, CABAC : Yes
Format settings, RefFrames : 5 frames
Codec ID : V_MPEG4/ISO/AVC
Duration : 1 h 10 min
Bit rate mode : Variable
Bit rate : 3 781 kb/s
Maximum bit rate : 4 500 kb/s
Width : 1 280 pixels
Height : 720 pixels
Display aspect ratio : 16:9
Frame rate mode : Constant
Frame rate : 25.000 FPS
Color space : YUV
Chroma subsampling : 4:2:0
Bit depth : 8 bits
Scan type : Progressive
Bits/(Pixel*Frame) : 0.164
Stream size : 1.85 GiB (81%)
Language : English
Default : Yes
Forced : No
Color range : Limited
Color primaries : BT.709
Transfer characteristics : BT.709
Matrix coefficients : BT.709

Audio #1
ID : 3
Format : AC-3
Format/Info : Audio Coding 3
Format settings, Endianness : Big
Codec ID : A_AC3
Duration : 1 h 10 min
Bit rate mode : Constant
Bit rate : 384 kb/s
Channel(s) : 6 channels
Channel positions : Front: L C R, Side: L R, LFE
Sampling rate : 48.0 kHz
Frame rate : 31.250 FPS (1536 SPF)
Bit depth : 16 bits
Compression mode : Lossy
Stream size : 192 MiB (8%)
Title : DD5.1 AlexFilm
Language : Russian
Service kind : Complete Main
Default : Yes
Forced : No

Audio #2
ID : 4
Format : AC-3
Format/Info : Audio Coding 3
Format settings, Endianness : Big
Codec ID : A_AC3
Duration : 1 h 10 min
Bit rate mode : Constant
Bit rate : 384 kb/s
Channel(s) : 6 channels
Channel positions : Front: L C R, Side: L R, LFE
Sampling rate : 48.0 kHz
Frame rate : 31.250 FPS (1536 SPF)
Bit depth : 16 bits
Compression mode : Lossy
Stream size : 192 MiB (8%)
Title : DD5.1 Original
Language : English
Service kind : Complete Main
Default : No
Forced : No

Text
ID : 2
Format : UTF-8
Codec ID : S_TEXT/UTF8
Codec ID/Info : UTF-8 Plain Text
Language : English
Default : No
Forced : No
скриншот  скриншот  скриншот  
pb.wtf



Скачать Гранд Тур через торрент http://i84.fastpic.ru/big/2016/1128/80/631afcbe4c2260d8aec96d737bba2a80.jpg Скачать, смотреть онлайн Гранд Тур бесплантно в хорошем качестве Описание: Предлагаем вашему вниманию долгожданный многими фанатами автомобилей проект с легендарными ведущими Джереми Кларксоном, Джеймом ... 9.6 10 25
Info! Золотая раздача, скачанное не засчитывается.
Торрент: Зарегистрирован [2018-02-20 10:29] · скачан: 169 раз
Статус: √ проверено
Размер: 24.99 GB
Как cкачать? Как скачать Гранд Тур через торрент | UTorrent

% Раздел Тема Автор DL S | L
Автоспорт [ 139.01 GB ] Гранд тур / The Grand Tour / Сезон: 2 / Серии: 1-11 из 11 [2017 Автошоу UHD WEBRip 2160p] [HDR] MVO [AlexFilm] bober100 Скачать
1 | 0
Автоспорт [ 64.15 GB ] Гранд тур / The Grand Tour / Сезон: 2 / Серии: 1-11 из 11 [2017 Автошоу WEB-DL 1080p] 2xMVO [AlexFilm NewStudio] bober100 Скачать
1 | 0
Автоспорт [ 23.09 GB ] Гранд тур / The Grand Tour / Сезон: 2 / Серии: 1-11 из 11 [2017 Автошоу WEBRip 720p ] MVO [Jaskier] bober100 Скачать
1 | 0
Автоспорт [ 8.3 GB ] Гранд Тур / The Grand Tour / Сезон 2 / Серии 1-11 из 11 [2017. Авто-шоу WEBRip] [MVO] killermax2013 Скачать
1 | 0
Автоспорт [ 60.98 GB ] Гранд тур / The Grand Tour / Сезон: 2 / Серии: 1-11 из 11 [2017 Автошоу WEBRip 1080p] MVO [Jaskier] bober100 Скачать
1 | 0
Автоспорт [ 8.58 GB ] Гранд тур / The Grand Tour / Сезон: 2 / Серии: 1-11 из 11 [2017 Автошоу WEBRip] MVO [Jaskier] bober100 Скачать
1 | 0


Последний раз редактировалось: killermax2013 (2018-02-20 10:29), всего редактировалось 7 раз(а)

28-11-2019 20:33  

Отключить вcю реклaмy на сайте

09-12-2017 15:37 Гранд Тур Скачать торрент  

Цитата:

Для ценителей 1080p/2160p в раздаче приложены отдельно аудидорожки.

А смысл? Кто может прикрутить дорогу к 2160, тот может и выдрать ее из этого mkv.pb.wtf



10-12-2017 12:20 Гранд Тур Скачать торрент  

А почему скрины из 1го сезона 1й серии?pb.wtf



17-12-2017 16:23 Гранд Тур Скачать торрент  

+2 pb.wtf



23-12-2017 22:31 Гранд Тур Скачать торрент  

+ 3pb.wtf



30-12-2017 11:54 Гранд Тур Скачать торрент  

+4pb.wtf



16-01-2018 09:38 Гранд Тур Скачать торрент  

+5-6pb.wtf



20-01-2018 08:05 Гранд Тур Скачать торрент  

+7pb.wtf



27-01-2018 19:25 Гранд Тур Скачать торрент  

+8pb.wtf



20-02-2018 10:29 Гранд Тур Скачать торрент  

+9-11. Сезон завершенpb.wtf



    Дорогой пользователь! Огромная просьба, поблагодарите релизера, оцените раздачу и оставьте свои комментарий, если Вы скачали Гранд Тур через торрент бесплатно!
    Комментировать посты могут только пользователи прошедшие не сложную регистрацию
    Показать сообщения:    

    Гранд Тур через торрент
    Скачать бесплатно Гранд Тур
    Гранд Тур скачать торрент
    Гранд Тур смотреть онлайн
    Cкачать фильм Гранд Тур бесплатно
    Гранд Тур скачать торрент в хорошем качестве
    Гранд Тур смотреть онлайн бесплатно в хорошем качестве


    Вы не можете начинать темы
    Вы не можете отвечать на сообщения
    Вы не можете редактировать свои сообщения
    Вы не можете удалять свои сообщения
    Вы не можете голосовать в опросах
    Вы не можете прикреплять файлы к сообщениям
    Вы можете скачивать файлы