Ссылка на приватное зеркало нашего сайта всего за 1$. Внимание количество ограничено!!!

2 сезон

iTunes

1 сезон

1

2 сезон

2 сезон

iTunes

1 сезон

RePack

30

Ultimate

ВАЖНО

ИГРА 18+

pack

RePack

MK11
pack

Забери бонус

RePack

jed

!!Акция!!

Alien_Rage

RePack

fifa19

RePack

Assassins Creed: Odyssey

RePack

NEED FOR SPEED™ PAYBACK

4 сезон

9 сезон

Бесстыжие 9 сезон

Все сериалы

все сериалы на PB.wtf

RePack

FAR CRY 5
  

Ритуал / The Ritual (Дэвид Брукнер / David Bruckner) [2017, ужасы, WEBRip 1080p ] MVO [HDrezka Studio] pb.wtf

Ритуал через торрент pb.wtf

Раздают: 1 [ 0 KB/s ] Качают: 1 [ 0 KB/s ]
Размер: 3.6 GB | Добавлен: 2 года 9 мес. назад | Торрент скачан:1135 раз
Скачать  

12-02-2018 20:09 Ритуал Скачать торрент  

Ритуал / The Ritual

Год выпуска: 2018
Страна: Великобритания
Жанр: Ужасы
Продолжительность: 01:34:42
Перевод: Профессиональный [многоголосый][HDrezka Studio]
Субтитры: Английские
Режиссер: Дэвид Брукнер
В ролях:

Рейф Сполл, Роб Джеймс-Колльер, Сэм Тротон, Аршер Али, Пол Рейд, Керри МакЛин, Мария Эрвольтер.
Описание:
Главными героями фильма ужасов Ритуал являются четверо мужчин одноклассников, которые когда-то учились вместе. Недавно один из их компании погиб, при ограблении магазина. Друзья решили собраться вместе и вспомнить добрым словом товарища, безвременно ушедшего из жизни. Так и сделали. Парни отправились в лес, в котором нравилось бывать их погибшему приятелю. Там они намеревались пообщаться, помянуть его. Пока шли по тропе, ничто не предвещало плохого. Места были знакомы каждому. Но в какой-то момент ребята вдруг сбились с пути. Они и сами не заметили, как это произошло. Когда подростки перестали узнавать местность вокруг, они не впали в панику, а решили брести наугад. Вскоре они увидели перед собой странную хижину. В ней никого нет, и приятели остановились в ней передохнуть. То, что они увидели внутри, привело их в ужас. Кажется, здесь совершались разнообразные ритуалы смерти и приношения людей в жертву. Вот только кому? Неизвестному существу – страшному и не похожему на человека… Удастся ли заблудившимся путникам вернуться в свои дома живыми и невредимыми?
Мировая премьера: 8 сентября 2017

rating
Релиз от:


Качество: WEBRip 1080p
Формат: MKV
Видео кодек: AVC
Аудио кодек: AC3
Видео: AVC;1920x1080 (16:9);4640 Kbps;23,976 fps;0,093 bpp
Аудио №1: AC3 / 2.0 / 48 kHz / 384 kbps / Русский
Аудио №2: E-AC3+ / 5.1 / 48 kHz / 384 kbps / Английский

Общее
Уникальный идентификатор : 96173538306412586394651856595737369289 (0x485A5987C98A6F5CF55A14D6E793DAC9)
Полное имя : E:\The.rRitual.2018.Kinozal-Reliz.by WSM.mkv
Формат : Matroska
Версия формата : Version 4 / Version 2
Размер файла : 3,60 Гбайт
Продолжительность : 1 ч. 34 м.
Режим общего битрейта : Переменный
Общий поток : 5442 Кбит/сек
Название фильма : The.rRitual.2018
Дата кодирования : UTC 2018-02-12 17:54:59
Программа кодирования : mkvmerge v20.0.0 ('I Am The Sun') 64-bit
Библиотека кодирования : libebml v1.3.5 + libmatroska v1.4.8

Видео
Идентификатор : 1
Формат : AVC
Формат/Информация : Advanced Video Codec
Профиль формата : Main@L4
Настройки формата : CABAC / 3 Ref Frames
Параметр CABAC формата : Да
Параметр RefFrames формата : 3 кадра
Идентификатор кодека : V_MPEG4/ISO/AVC
Продолжительность : 1 ч. 34 м.
Вид битрейта : Переменный
Битрейт : 4640 Кбит/сек
Максимальный битрейт : 6960 Кбит/сек
Ширина : 1920 пикселей
Высота : 1080 пикселей
Соотношение сторон : 16:9
Режим частоты кадров : Постоянный
Частота кадров : 23,976 (24000/1001) кадра/сек
Цветовое пространство : YUV
Субдискретизация насыщенности : 4:2:0
Битовая глубина : 8 бит
Тип развёртки : Прогрессивная
Бит/(Пиксели*Кадры) : 0.093
Размер потока : 2,98 Гбайт (83%)
Библиотека кодирования : x264 core 148 r2714 2daf636
Настройки программы : cabac=1 / ref=3 / deblock=1:0:0 / analyse=0x1:0x111 / me=umh / subme=10 / psy=1 / psy_rd=1.00:0.00 / mixed_ref=1 / me_range=24 / chroma_me=1 / trellis=2 / 8x8dct=0 / cqm=0 / deadzone=21,11 / fast_pskip=1 / chroma_qp_offset=-2 / threads=8 / lookahead_threads=1 / sliced_threads=0 / nr=0 / decimate=1 / interlaced=0 / bluray_compat=0 / stitchable=1 / constrained_intra=0 / bframes=2 / b_pyramid=0 / b_adapt=2 / b_bias=0 / direct=3 / weightb=1 / open_gop=0 / weightp=2 / keyint=48 / keyint_min=25 / scenecut=0 / intra_refresh=0 / rc_lookahead=48 / rc=2pass / mbtree=1 / bitrate=4640 / ratetol=1.0 / qcomp=0.50 / qpmin=6 / qpmax=51 / qpstep=4 / cplxblur=20.0 / qblur=0.5 / vbv_maxrate=6960 / vbv_bufsize=9280 / nal_hrd=vbr / filler=0 / ip_ratio=1.40 / aq=1:1.00
Default : Да
Forced : Нет

Аудио #1
Идентификатор : 2
Формат : AC-3
Формат/Информация : Audio Coding 3
Идентификатор кодека : A_AC3
Продолжительность : 1 ч. 34 м.
Вид битрейта : Постоянный
Битрейт : 384 Кбит/сек
Каналы : 2 канала
Расположение каналов : Front: L R
Частота : 48,0 КГц
Частота кадров : 31,250 кадров/сек (1536 SPF)
Битовая глубина : 16 бит
Метод сжатия : С потерями
Размер потока : 260 Мбайт (7%)
Язык : Russian
ServiceKind/String : Complete Main
Default : Да
Forced : Да

Аудио #2
Идентификатор : 3
Формат : E-AC-3
Формат/Информация : Enhanced Audio Coding 3
Профиль формата : E-AC-3+Atmos / E-AC-3
Идентификатор кодека : A_EAC3
Продолжительность : 1 ч. 34 м.
Вид битрейта : Постоянный
Битрейт : 448 Кбит/сек
Каналы : 15 objects / 6 каналов
Расположение каналов : 15 objects / Front: L C R, Side: L R, LFE
Частота : 48,0 КГц
Частота кадров : 187,500 кадров/сек (256 SPF)
Метод сжатия : С потерями
Размер потока : 303 Мбайт (8%)
Язык : English
ServiceKind/String : Complete Main
Default : Нет
Forced : Нет

Текст
Идентификатор : 4
Формат : UTF-8
Идентификатор кодека : S_TEXT/UTF8
Идентификатор кодека/Информация : UTF-8 Plain Text
Язык : English
Default : Нет
Forced : Нет
скриншот  скриншот  

скриншот  скриншот  

скриншот  скриншот  
pb.wtf



Скачать Ритуал через торрент https://b.radikal.ru/b34/1802/41/c66c64e6110e.gif Скачать фильм Ритуал через торрент бесплантно в хорошем качестве Описание: Главными героями фильма ужасов Ритуал являются четверо мужчин одноклассников, которые когда-то учились вместе. Недавно один из их ... 9.7 10 23
Info! Золотая раздача, скачанное не засчитывается.
Торрент: Зарегистрирован [2018-02-12 20:09] · скачан: 1 135 раз
Статус: T временная
Размер: 3.6 GB
Как cкачать? Как скачать Ритуал через торрент | qTorrent

% Раздел Тема Автор DL S | L
T Фильмы 2017 [DVDrip, WEB-DLRip, HDrip] (DUB, MVO) [ 1.93 GB ] Ритуал / The Ritual [2017 WEB-DLRip-AVC] MVO [HDRezka Studio] bober100 Скачать
1 | 0
T Фильмы (мультфильмы) cо спонсором показа (Новинки AVI/MKV) [ 3.55 GB ] Ритуал / The Ritual [2017 WEB-DL 1080p] MVO [Jaskier] bober100 Скачать
1 | 0
T Фильмы (мультфильмы) cо спонсором показа (Новинки AVI/MKV) [ 1.01 GB ] Ритуал / The Ritual [2017 WEB-DLRip] MVO [Jaskier] bober100 Скачать
1 | 0
T Фильмы (мультфильмы) cо спонсором показа (Новинки AVI/MKV) [ 1.37 GB ] Ритуал / The Ritual [2017 WEB-DLRip] MVO [BaibaKo] bober100 Скачать
1 | 0
T Фильмы 2017 (Звук TS, Cam, VO, DVO) [ 1.46 GB ] Ритуал / The Ritual [2017 WEB-DLRip-AVC] DVO sokol_ok Скачать
2 | 0
T Фильмы 2017 (Звук TS, Cam, VO, DVO) [ 2.18 GB ] Ритуал / The Ritual [2017 WEB-DLRip-AVC] DVO sokol_ok Скачать
2 | 0
T Фильмы 2017 (Звук TS, Cam, VO, DVO) [ 746 MB ] Ритуал / The Ritual [2017 WEB-DLRip-AVC] DVO sokol_ok Скачать
2 | 0

28-11-2019 20:33  

Отключить всю рекламу на сайте

12-02-2018 20:14 Ритуал Скачать торрент  

pb.wtf



13-02-2018 12:44 Ритуал Скачать торрент  

Хороший фильм, не такой уж страшный, но есть напряжение и смотреть интересно! Любителям данной тематики рекомендую обязательно!pb.wtf



13-02-2018 17:17 Ритуал Скачать торрент  

Книга в сто раз круче , имхо!!!!!pb.wtf



14-02-2018 10:54 Ритуал Скачать торрент  

Последний скрин смотришь, как буд-то весь фильм уже посмотрел.pb.wtf



07-03-2018 20:51 Ритуал Скачать торрент  

Seraphim Rudo писал(а):

Книга в сто раз круче , имхо!!!!!

книга всегда кручеpb.wtf



11-01-2019 20:13 Ритуал Скачать торрент  

Sergej001 писал(а):

Хороший фильм, не такой уж страшный, но есть напряжение и смотреть интересно! Любителям данной тематики рекомендую обязательно!

Снят в лучших традициях я бы даже сказал. pb.wtf



    Дорогой пользователь! Огромная просьба, поблагодарите релизера, оцените раздачу и оставьте свои комментарий, если Вы скачали Ритуал через торрент бесплатно! Внесите свою лепту в развитие PiratBit!
    Комментировать посты могут только пользователи прошедшие не сложную регистрацию
    Показать сообщения:    

    Ритуал через торрент
    Скачать бесплатно Ритуал
    Ритуал скачать торрент
    Ритуал смотреть онлайн
    Cкачать фильм Ритуал бесплатно
    Ритуал скачать торрент в хорошем качестве
    Ритуал смотреть онлайн бесплатно в хорошем качестве


    Вы не можете начинать темы
    Вы не можете отвечать на сообщения
    Вы не можете редактировать свои сообщения
    Вы не можете удалять свои сообщения
    Вы не можете голосовать в опросах
    Вы не можете прикреплять файлы к сообщениям
    Вы можете скачивать файлы