Всегда рабочее зеркало без VPN и Proxy просто перед .vidak.icu напиши любое слово или цифру, Пример http://943n.vidak.icu

Лицензия

MVO

1 сезон

1

1 сезон

iTunes

1 сезон

13

1 сезон

Deluxe

pack

Рекомендуем

Repack

30

ВАЖНО

RePack

MK11

RePack

jed

RePack

fifa19

RePack

RDR2

RePack

NEED FOR SPEED™ PAYBACK

Кинопоиск HD

6 сезон

 Острые козырьки 6 сезон

Все сериалы

все сериалы на PB.wtf

RePack

FAR CRY 5
  
Magnet ссылка

Мстители: Война бесконечности / Avengers: Infinity War (Энтони Руссо, Джо Руссо) [2018, Фантастика, фэнтези, боевик, приключения, WEB-DLRip-AVC] [Sub Rus] - ExKinoRay pb.wtf

Мстители: Война бесконечности через торрент pb.wtf

Размер: 2.17 GB | Добавлен: 4 года назад | Торрент скачан:275 раз
Смотреть онлайн Мстители: Война бесконечности | Скачать    Ребята, помогите собрать деньги на оплату серверов!!!

31-07-2018 01:36 Мстители: Война бесконечности Скачать торрент  

Название: Мстители: Война бесконечности
Оригинальное название: Avengers: Infinity War
Год выхода: 2018
Жанр: Фантастика, фэнтези, боевик, приключения
Режиссер: Энтони Руссо, Джо Руссо
В ролях: Роберт Дауни мл., Крис Хемсворт, Марк Руффало, Крис Эванс, Скарлетт Йоханссон, Дон Чидл, Бенедикт Камбербэтч, Том Холланд (II), Чэдвик Боузмэн, Зои Салдана

Описание: Пока Мстители и их союзники продолжают защищать мир от различных опасностей, с которыми не смог бы справиться один супергерой, новая угроза возникает из космоса: Танос. Межгалактический тиран преследует цель собрать все шесть Камней Бесконечности — артефакты невероятной силы, с помощью которых можно менять реальность по своему желанию. Всё, с чем Мстители сталкивались ранее, вело к этому моменту — судьба Земли никогда ещё не была столь неопределённой.

rating

Страна: США
Студия: Marvel Studios
Продолжительность: 02:29:41
Перевод: Отсутствует
Субтитры: Русские, английские

Формат: MKV
Качество: WEB-DLRip-AVC
Видео: MPEG-4 AVC, 720x304 (2.667:1), 23.976 fps, ~1687 kbps avg, 0.324 bit/pixel
Аудио: 48 kHz, AC3 Dolby Digital, 5/1 ch, ~384 kbps
General
Unique ID : 192674932696958368521842943609390975067 (0x90F3D79D21AB6762922B08CB11F3485B)
Complete name : D:\Avengers.Infinity.War.2018.WEB-DLRip.AVC.ExKinoRay.mkv
Format : Matroska
Format version : Version 2
File size : 2.17 GiB
Duration : 2 h 29 min
Overall bit rate : 2 072 kb/s
Movie name : Avengers: Infinity War (2018) from ExKinoRay
Encoded date : UTC 2018-07-31 00:20:43
Writing application : mkvmerge v5.6.0 ('Kenya Kane') built on May 27 2012 16:44:04
Writing library : libebml v1.2.3 + libmatroska v1.3.0

Video
ID : 1
Format : AVC
Format/Info : Advanced Video Codec
Format profile : [email protected]
Format settings, CABAC : Yes
Format settings, ReFrames : 12 frames
Codec ID : V_MPEG4/ISO/AVC
Duration : 2 h 29 min
Bit rate : 1 687 kb/s
Width : 720 pixels
Height : 302 pixels
Display aspect ratio : 2.40:1
Frame rate mode : Constant
Frame rate : 23.976 (24000/1001) FPS
Original frame rate : 23.976 (23976/1000) FPS
Color space : YUV
Chroma subsampling : 4:2:0
Bit depth : 8 bits
Scan type : Progressive
Bits/(Pixel*Frame) : 0.324
Stream size : 1.72 GiB (79%)
Title : Enigma
Writing library : x264 core 152 r2851 ba24899
Encoding settings : cabac=1 / ref=12 / deblock=1:-2:-2 / analyse=0x3:0x113 / me=umh / subme=10 / psy=1 / psy_rd=1.00:0.10 / mixed_ref=1 / me_range=32 / chroma_me=1 / trellis=2 / 8x8dct=1 / cqm=0 / deadzone=21,11 / fast_pskip=0 / chroma_qp_offset=-3 / threads=9 / lookahead_threads=2 / sliced_threads=0 / nr=0 / decimate=0 / interlaced=0 / bluray_compat=0 / constrained_intra=0 / bframes=12 / b_pyramid=2 / b_adapt=2 / b_bias=0 / direct=3 / weightb=1 / open_gop=0 / weightp=2 / keyint=240 / keyint_min=23 / scenecut=40 / intra_refresh=0 / rc_lookahead=40 / rc=2pass / mbtree=0 / bitrate=1687 / ratetol=1.0 / qcomp=0.65 / qpmin=0 / qpmax=51 / qpstep=4 / cplxblur=20.0 / qblur=0.5 / vbv_maxrate=50000 / vbv_bufsize=62500 / nal_hrd=none / filler=0 / ip_ratio=1.30 / pb_ratio=1.20 / aq=3:0.80
Default : Yes
Forced : No
Color range : Limited
Color primaries : BT.709
Transfer characteristics : BT.709
Matrix coefficients : BT.709

Audio
ID : 2
Format : AC-3
Format/Info : Audio Coding 3
Mode extension : CM (complete main)
Format settings, Endianness : Big
Codec ID : A_AC3
Duration : 2 h 29 min
Bit rate mode : Constant
Bit rate : 384 kb/s
Channel(s) : 6 channels
Channel positions : Front: L C R, Side: L R, LFE
Sampling rate : 48.0 kHz
Frame rate : 31.250 FPS (1536 spf)
Compression mode : Lossy
Stream size : 411 MiB (19%)
Language : English
Default : Yes
Forced : No

Text #1
ID : 3
Format : UTF-8
Codec ID : S_TEXT/UTF8
Codec ID/Info : UTF-8 Plain Text
Title : Full
Language : Russian
Default : Yes
Forced : Yes

Text #2
ID : 4
Format : UTF-8
Codec ID : S_TEXT/UTF8
Codec ID/Info : UTF-8 Plain Text
Language : English
Default : No
Forced : No

Menu
00:00:00.000 : en:Thanos Is Coming
00:11:28.000 : en:Infinity Stones
00:18:14.000 : en:Fight For The Time Stone
00:27:23.000 : en:Who The Hell Are You Guys?
00:35:48.000 : en:Wanda And Vision
00:42:23.000 : en:Knowhere
00:54:12.000 : en:Avengers Assemble
00:59:36.000 : en:Take The Fight To Him
01:05:07.000 : en:The Soul Stone
01:10:53.000 : en:Nidavellir
01:17:07.000 : en:Titan
01:24:14.000 : en:Vormir
01:31:08.000 : en:"Wakanda Forever"
01:42:00.000 : en:Stormbreaker
01:45:57.000 : en:Titan Confrontation
01:53:04.000 : en:A Vision Situation
01:58:53.000 : en:The Time Stone
02:03:58.000 : en:The End Game
02:11:13.000 : en:Aftermath
02:17:31.000 : en:End Credits
Релиз от:

Автор релиза: pb.wtf



Скачать Мстители: Война бесконечности через торрент http://img11.lostpic.net/2018/07/30/89f1a5ec5e072ce5f828afc6c072f5b3.jpg Скачать, смотреть онлайн Мстители: Война бесконечности бесплантно в хорошем качестве Описание: Пока Мстители и их союзники продолжают защищать мир от различных опасностей, с которыми не смог бы справиться один супергерой, ... 9.8 10 11
Info! Золотая раздача, скачанное не засчитывается.
Торрент: Зарегистрирован [2018-07-31 01:36] · скачан: 275 раз
Статус: T временная
Размер: 2.17 GB
Как cкачать? Как скачать Мстители: Война бесконечности через торрент | UTorrent

% Раздел Тема Автор DL S | L
Фильмы 2018 [DVDrip, WEB-DLRip, HDrip] (DUB, MVO) [ 3.65 GB ] Мстители: Война бесконечности / Avengers: Infinity War [2018 BDRip-AVC BD CEE AVO] от ExKinoRay morfyi Скачать
4 | 0
Фильмы 2018 [DVDrip, WEB-DLRip, HDrip] (DUB, MVO) [ 2.17 GB ] Мстители: Война бесконечности / Avengers: Infinity War [2018 BDRip-AVC] [] - ExKinoRay Enigma2010 Скачать
1 | 0

28-11-2019 20:33  

Отключить вcю реклaмy на сайте

31-07-2018 03:20 Мстители: Война бесконечности Скачать торрент  

девушка-красавица, сэмпл залей пжалстаpb.wtf



31-07-2018 06:12 Мстители: Война бесконечности Скачать торрент  

Это без перевода с сабами.pb.wtf



31-07-2018 08:08 Мстители: Война бесконечности Скачать торрент  

еще неделю ждатьpb.wtf



    Дорогой пользователь! Огромная просьба, поблагодарите релизера, оцените раздачу и оставьте свои комментарий, если Вы скачали Мстители: Война бесконечности через торрент бесплатно!
    Комментировать посты могут только пользователи прошедшие не сложную регистрацию
    Показать сообщения:    

    Мстители: Война бесконечности через торрент
    Скачать бесплатно Мстители: Война бесконечности
    Мстители: Война бесконечности скачать торрент
    Мстители: Война бесконечности смотреть онлайн
    Cкачать фильм Мстители: Война бесконечности бесплатно
    Мстители: Война бесконечности скачать торрент в хорошем качестве
    Мстители: Война бесконечности смотреть онлайн бесплатно в хорошем качестве


    Вы не можете начинать темы
    Вы не можете отвечать на сообщения
    Вы не можете редактировать свои сообщения
    Вы не можете удалять свои сообщения
    Вы не можете голосовать в опросах
    Вы не можете прикреплять файлы к сообщениям
    Вы можете скачивать файлы