Всегда рабочее зеркало без VPN и Proxy просто перед .vidak.icu напиши любое слово или цифру, Пример http://xuo4.vidak.icu

MVO

Лицензия

1 сезон

1

1 сезон

iTunes

1 сезон

13

1 сезон

Deluxe

pack

Рекомендуем

Repack

30

ВАЖНО

RePack

MK11

RePack

jed

RePack

fifa19

RePack

RDR2

RePack

NEED FOR SPEED™ PAYBACK

Кинопоиск HD

6 сезон

 Острые козырьки 6 сезон

Все сериалы

все сериалы на PB.wtf

RePack

FAR CRY 5
  
Magnet ссылка

Охота на воров / Den of Thieves (Кристиан Гьюдгэст) [2018, боевик, триллер, драма, криминал, детектив, приключения, BD Remux 1080p] DUB [Лицензия] [Театральная версия] pb.wtf

Охота на воров через торрент pb.wtf

Размер: 33.81 GB | Добавлен: 4 года назад | Торрент скачан:94 раза
Смотреть онлайн Охота на воров | Скачать    Ребята, помогите собрать деньги на оплату серверов!!!

02-07-2018 06:34 Охота на воров Скачать торрент  

Охота на воров / Den of Thieves
Год выпуска: 2018
Страна: США
Жанр: боевик, триллер, драма, криминал, детектив, приключения
Продолжительность: 02:20:28
Перевод: Дублированный | Лицензия
Субтитры: Английские

Режиссер: Кристиан Гьюдгэст

rating

В ролях:

Джерард Батлер, Джордан Бриджес, Пабло Шрайбер, Ивэн Джонс, О Ши Джексон мл., Фифти Сент, Соня Балморес, Эрик Браден, Брайан Ван Холт, Морис Комт

Описание:

Большой Ник - начальник элитного подразделения полиции Лос-Анджелеса - ежедневно доказывает, что его команда более крутая, чем те, на кого они охотятся. Когда коп узнает, что легендарный и неуловимый вор планирует дерзкое ограбление Федерального резервного банка США, то он решает помешать этому любым способом. И играть по правилам он не привык.

Качество: BD Remux 1080p | Театральная версия
Формат: MKV

Видео: MPEG-4 AVC, 1920x1080, 26.7 Mbit/s, 23.976 fps
Аудио#1: 48 kHz, DTS-HD MA, 5.1, 3719 Kbps | Лицензия | RUS |
Аудио#2: 48 kHz, AC3, 5.1, 640 Kbps | Лицензия | RUS |
Аудио#3: 48 kHz, DTS-HD MA, 5.1, 3428 Kbps | Оригинал | ENG |
скриншот   скриншот   скриншот   скриншот   скриншот  

General
Unique ID : 304438137591927353789128993514992286495 (0xE508A70CDF8163E04FD81203D845BB1F)
Complete name : D:Video111Den.of.Thieves.2018.D.BDREMUX.1080p.ExKinoRay.mkv
Format : Matroska
Format version : Version 4 / Version 2
File size : 33.8 GiB
Duration : 2 h 20 min
Overall bit rate mode : Variable
Overall bit rate : 34.5 Mb/s
Movie name : Den of Thieves 2018 from ExKinoRay
Encoded date : UTC 2018-07-02 05:22:09
Writing application : mkvmerge v23.0.0 ('The Bride Said No') 64-bit
Writing library : libebml v1.3.6 + libmatroska v1.4.9

Video
ID : 1
Format : AVC
Format/Info : Advanced Video Codec
Format profile : [email protected]
Format settings : CABAC / 4 Ref Frames
Format settings, CABAC : Yes
Format settings, ReFrames : 4 frames
Codec ID : V_MPEG4/ISO/AVC
Duration : 2 h 20 min
Bit rate mode : Variable
Bit rate : 26.7 Mb/s
Maximum bit rate : 35.0 Mb/s
Width : 1 920 pixels
Height : 1 080 pixels
Display aspect ratio : 16:9
Frame rate mode : Constant
Frame rate : 23.976 (24000/1001) FPS
Color space : YUV
Chroma subsampling : 4:2:0
Bit depth : 8 bits
Scan type : Progressive
Bits/(Pixel*Frame) : 0.536
Stream size : 26.2 GiB (77%)
Language : English
Default : Yes
Forced : No

Audio #1
ID : 2
Format : DTS
Format/Info : Digital Theater Systems
Format profile : MA / Core
Codec ID : A_DTS
Duration : 2 h 20 min
Bit rate mode : Variable / Constant
Bit rate : 3 719 kb/s / 1 509 kb/s
Channel(s) : 6 channels
Channel positions : Front: L C R, Side: L R, LFE
Sampling rate : 48.0 kHz
Frame rate : 93.750 FPS (512 SPF)
Bit depth : 24 bits
Compression mode : Lossless / Lossy
Stream size : 3.65 GiB (11%)
Title : Dub [License]
Language : Russian
Default : Yes
Forced : Yes

Audio #2
ID : 3
Format : AC-3
Format/Info : Audio Coding 3
Codec ID : A_AC3
Duration : 2 h 20 min
Bit rate mode : Constant
Bit rate : 640 kb/s
Channel(s) : 6 channels
Channel positions : Front: L C R, Side: L R, LFE
Sampling rate : 48.0 kHz
Frame rate : 31.250 FPS (1536 SPF)
Bit depth : 16 bits
Compression mode : Lossy
Stream size : 643 MiB (2%)
Title : Dub [License]
Language : Russian
Service kind : Complete Main
Default : No
Forced : No

Audio #3
ID : 4
Format : DTS
Format/Info : Digital Theater Systems
Format profile : MA / Core
Codec ID : A_DTS
Duration : 2 h 20 min
Bit rate mode : Variable / Constant
Bit rate : 3 428 kb/s / 1 509 kb/s
Channel(s) : 6 channels
Channel positions : Front: L C R, Side: L R, LFE
Sampling rate : 48.0 kHz
Frame rate : 93.750 FPS (512 SPF)
Bit depth : 24 bits
Compression mode : Lossless / Lossy
Stream size : 3.36 GiB (10%)
Title : Original
Language : English
Default : No
Forced : No

Text
ID : 5
Format : UTF-8
Codec ID : S_TEXT/UTF8
Codec ID/Info : UTF-8 Plain Text
Duration : 2 h 11 min
Bit rate : 46 b/s
Count of elements : 1482
Stream size : 44.6 KiB (0%)
Title : Full
Language : English
Default : No
Forced : No

Menu
00:00:00.000 : en:1
00:09:15.000 : en:2
00:18:58.000 : en:3
00:31:49.000 : en:4
00:38:14.000 : en:5
00:48:11.000 : en:6
00:58:05.000 : en:7
01:08:43.000 : en:8
01:16:24.000 : en:9
01:26:19.000 : en:10
01:41:35.000 : en:11
01:49:43.000 : en:12
02:08:22.000 : en:13

pb.wtf



Скачать Охота на воров через торрент https://pic1.kartinco.top/images/11/tdgrr.jpg Скачать, смотреть онлайн Охота на воров бесплантно в хорошем качестве Описание: Большой Ник - начальник элитного подразделения полиции Лос-Анджелеса - ежедневно доказывает, что его команда более крутая, чем ... 10 10 4
Info! Золотая раздача, скачанное не засчитывается.
Торрент: Зарегистрирован [2018-07-02 06:34] · скачан: 94 раз
Статус: √ проверено
Размер: 33.81 GB
Как cкачать? Как скачать Охота на воров через торрент | UTorrent

% Раздел Тема Автор DL S | L
Фильмы с авторской озвучкой [ 2.63 GB ] Охота на воров / Вертеп разбойников / Логово грабителей / Den of Thieves [2018 BDRip] [Расширенная версия / Unrated Cut] 2x[AVO] killermax2013 Скачать
1 | 0
Фильмы с авторской озвучкой [ 2.47 GB ] Охота на воров / Den of Thieves [2018 BDRip-AVC] [UNRATED] [AVO] killermax2013 Скачать
1 | 0
Фильмы 2018 [DVDrip, WEB-DLRip, HDrip] (DUB, MVO) [ 2.16 GB ] Охота на воров / Den of Thieves [2018 BDRip-AVC] - [] - ExKinoRay Enigma2010 Скачать
1 | 0
Фильмы 2018 [DVDrip, WEB-DLRip, HDrip] (DUB, MVO) [ 2.18 GB ] Охота на воров / Den of Thieves [2018 BDRip] - [] Twi7ter Скачать
1 | 0
Фильмы (Blu-ray, BD-Remux, HDDVD) [ 30.18 GB ] Охота на воров / Den of Thieves [2018 Blu-ray 1080p ] DUB [] [Театральная версия] bober100 Скачать
1 | 0
Фильмы 2018 [DVDrip, WEB-DLRip, HDrip] (DUB, MVO) [ 2.18 GB ] Охота на воров / Den of Thieves [2018 BDRip] [Театральная версия] DUB [ BD RUS] bober100 Скачать
1 | 0
Фильмы 2018 [DVDrip, WEB-DLRip, HDrip] (DUB, MVO) [ 1.46 GB ] Охота на воров / Den of Thieves [2018 BDRip] [Театральная версия] DUB [ BD RUS] bober100 Скачать
1 | 0

28-11-2019 20:33  

Отключить всю рекламу на сайте

01-08-2018 12:12 Охота на воров Скачать торрент  

4К не видно там?pb.wtf



    Дорогой пользователь! Огромная просьба, поблагодарите релизера, оцените раздачу и оставьте свои комментарий, если Вы скачали Охота на воров через торрент бесплатно!
    Комментировать посты могут только пользователи прошедшие не сложную регистрацию
    Показать сообщения:    

    Охота на воров через торрент
    Скачать бесплатно Охота на воров
    Охота на воров скачать торрент
    Охота на воров смотреть онлайн
    Cкачать фильм Охота на воров бесплатно
    Охота на воров скачать торрент в хорошем качестве
    Охота на воров смотреть онлайн бесплатно в хорошем качестве


    Вы не можете начинать темы
    Вы не можете отвечать на сообщения
    Вы не можете редактировать свои сообщения
    Вы не можете удалять свои сообщения
    Вы не можете голосовать в опросах
    Вы не можете прикреплять файлы к сообщениям
    Вы можете скачивать файлы