Ссылка на приватное зеркало нашего сайта всего за 1$. Внимание количество ограничено!!!

2 сезон

iTunes

1 сезон

1

iTunes

iTunes

iTunes

1 сезон

RePack

30

ИГРА 18+

pack

ВАЖНО

!!Акция!!

Alien_RageХит недели

RePack

MK11
pack

Забери бонус

RePack

jed

!!Акция!!

Alien_Rage

RePack

fifa19

RePack

Assassins Creed: Odyssey

RePack

NEED FOR SPEED™ PAYBACK

4 сезон

9 сезон

Бесстыжие 9 сезон

Все сериалы

все сериалы на PB.wtf

RePack

FAR CRY 5
  

Тюрьма мёртвых тел: Часть первая / Shishûgoku: Ki no hen (Хидэо Дзёдзё) [2017, ужасы, BDRip 720p] MVO ["Синема УС"] pb.wtf

Тюрьма мёртвых тел: Часть первая через торрент pb.wtf

Размер: 3.71 GB | Добавлен: 2 года назад | Торрент скачан:32 раза
Скачать  

22-10-2018 10:16 Тюрьма мёртвых тел: Часть первая Скачать торрент  

Тюрьма мёртвых тел: Часть первая / Shishûgoku: Ki no henГод выпуска: 2017
Страна: Япония
Жанр: ужасы
Продолжительность: 01:18:15
Перевод: Любительский (многоголосый) | "Синема УС"
Субтитры: отсутствуют

Режиссер: Хидэо Дзёдзё

rating

В ролях:

Моэми Катаяма, Анна Тачибана, Синъити Ваго, Рейми Фуджиширо, Рен Фукусаки

Описание:

Уже много поколений в маленекой деревеньке в горах не рождалось девочек. Профессор, его ассистентка и девушки-студентки приехали на университетскую практику для изучения особенностей культуры. Смогут ли они вернуться?

Качество: BDRip 720p
Формат: MKV

Видео: h.264, 6 343kb/s, 1280x720
Аудио#1: Русский (AC3, 2 ch, 448 Кбит/с)
скриншот  скриншот  скриншот  

Общее
Уникальный идентификатор : 233039680455038188368849603060773119612 (0xAF51CF546B3851DCA71396E1D8B7667C)
Полное имя : C:\Corpse.Prison.Part.One.2O17.P.BDRip.72Op_KOSHARA.mkv
Формат : Matroska
Версия формата : Version 2
Размер файла : 3,71 Гбайт
Продолжительность : 1 ч. 18 м.
Режим общего битрейта : Переменный
Общий поток : 6793 Кбит/сек
Дата кодирования : UTC 2018-10-21 17:46:47
Программа кодирования : mkvmerge v8.3.0 ('Over the Horizon') 64bit
Библиотека кодирования : libebml v1.3.1 + libmatroska v1.4.2

Видео
Идентификатор : 1
Формат : AVC
Формат/Информация : Advanced Video Codec
Профиль формата : High@L4.1
Параметр CABAC формата : Да
Параметр RefFrames формата : 4 кадра
Идентификатор кодека : V_MPEG4/ISO/AVC
Продолжительность : 1 ч. 18 м.
Вид битрейта : Переменный
Битрейт : 6343 Кбит/сек
Максимальный битрейт : 7500 Кбит/сек
Ширина : 1280 пикселей
Высота : 720 пикселей
Соотношение сторон : 16:9
Режим частоты кадров : Постоянный
Частота кадров : 23,976 (24000/1001) кадра/сек
Стандарт вещания : Component
Цветовое пространство : YUV
Субдискретизация насыщенности : 4:2:0
Битовая глубина : 8 бит
Тип развёртки : Прогрессивная
Бит/(Пиксели*Кадры) : 0.281
Размер потока : 3,39 Гбайт (91%)
Default : Да
Forced : Нет
Цветовой диапазон : Limited
Основные цвета : BT.709
Характеристики трансфера : BT.709
Коэффициенты матрицы : BT.709

Аудио
Идентификатор : 2
Формат : AC-3
Формат/Информация : Audio Coding 3
Расширение режима : CM (complete main)
Параметр Endianness формата : Big
Идентификатор кодека : A_AC3
Продолжительность : 1 ч. 18 м.
Вид битрейта : Постоянный
Битрейт : 448 Кбит/сек
Каналы : 2 канала
Расположение каналов : Front: L R
Частота : 48,0 КГц
Частота кадров : 31,250 кадров/сек (1536 spf)
Метод сжатия : С потерями
Размер потока : 251 Мбайт (7%)
Default : Да
Forced : Нет

pb.wtf



Скачать Тюрьма мёртвых тел: Часть первая через торрент https://c.radikal.ru/c38/1810/60/02afbbfcfb0a.jpg Скачать фильм Тюрьма мёртвых тел: Часть первая через торрент бесплантно в хорошем качестве Описание: Уже много поколений в маленекой деревеньке в горах не рождалось девочек. Профессор, его ассистентка и девушки-студентки приехали ... 10 10 2
Торрент: Зарегистрирован [2018-10-22 10:16] · скачан: 32 раз
Статус: # сомнительно
Размер: 3.71 GB
Как cкачать? Как скачать Тюрьма мёртвых тел: Часть первая через торрент | qTorrent

% Раздел Тема Автор DL S | L
T Фильмы (мультфильмы) cо спонсором показа (Новинки AVI/MKV) [ 1.37 GB ] Тюрьма мёртвых тел: Часть первая / Shishûgoku: Ki no hen [2017 HDRip] MVO ["Синема УС"] bober100 Скачать
1 | 0

28-11-2019 20:33  

Отключить всю рекламу на сайте

22-10-2018 10:40 Тюрьма мёртвых тел: Часть первая Скачать торрент  

Цитата:

Уже много поколений в маленекой деревеньке в горах не рождалось девочек

"сыновья Кронара"pb.wtf



    Дорогой пользователь! Огромная просьба, поблагодарите релизера, оцените раздачу и оставьте свои комментарий, если Вы скачали Тюрьма мёртвых тел: Часть первая через торрент бесплатно! Внесите свою лепту в развитие PiratBit!
    Комментировать посты могут только пользователи прошедшие не сложную регистрацию
    Показать сообщения:    

    Тюрьма мёртвых тел: Часть первая через торрент
    Скачать бесплатно Тюрьма мёртвых тел: Часть первая
    Тюрьма мёртвых тел: Часть первая скачать торрент
    Тюрьма мёртвых тел: Часть первая смотреть онлайн
    Cкачать фильм Тюрьма мёртвых тел: Часть первая бесплатно
    Тюрьма мёртвых тел: Часть первая скачать торрент в хорошем качестве
    Тюрьма мёртвых тел: Часть первая смотреть онлайн бесплатно в хорошем качестве


    Вы не можете начинать темы
    Вы не можете отвечать на сообщения
    Вы не можете редактировать свои сообщения
    Вы не можете удалять свои сообщения
    Вы не можете голосовать в опросах
    Вы не можете прикреплять файлы к сообщениям
    Вы можете скачивать файлы