Мега распродажа FORZA HORIZON 4 ULTIMATE+ВСЕ DLC+ОНЛАЙН всего за 499р. 349 руб. (супер цена). Внимание количество ограничено!!!

iTunes

1+1

iTunes

мы

iTunes

1

1 сезон

Чернобыль

1 сезон

Ральф против интернета

Лицензия

ПШазам

8 сезон

Игра престолов

Лицензия

30
pack

ВАЖНО

!!Акция!!

Alien_RageХит недели

RePack

Resident Evil 21

ИГРА 18+

pack

RePack

Metro:Exodus

!!Акция!!

Alien_Rage

RePack

fifa19

RePack

Assassins Creed: Odyssey

RePack

NEED FOR SPEED™ PAYBACK

3 сезон

9 сезон

Бесстыжие 9 сезон

Все сериалы

все сериалы на PB.wtf

RePack

FAR CRY 5
Ребята, катастрофически не хватает 2730р. для оплаты серверов за ИЮНЬ (всвязи с блокировками трафик упал в 3 раза), 1-2р., выручайте.
  

Опасная погоня / Kimi yo fundo no kawa wo watare (Дзюнья Сато) [1976, драма, триллер, BDRip 720p by msltel] DUB, DVO pb.wtf

Опасная погоня через торрент pb.wtf

Размер: 5.89 GB | Добавлен: 4 мес. 4 д. назад | Торрент скачан:0 раз
Скачать  

15-03-2019 06:52 Опасная погоня Скачать торрент  

Название: Опасная погоня
Оригинальное название: Kimi yo fundo no kawa wo watare
Год выпуска: 1976
Страна: Япония
Жанр: драма, триллер
Продолжительность: 02:31:09
Перевод: дублированный, закадровый двухголосый

Режиссер: Дзюнья Сато
В ролях: Кэн Такакура, Ёсио Харада, Рё Икэбэ, Рёко Накано, Хидэдзи Отаки, Мицуко Байсё, Такэтоси Найто, Эйдзи Окада, Ко Нисимура, Кай Ато

О фильме: Прокурор Мориока арестован полицией по обвинению в грабежах и изнасиловании. В его квартире найдены многочисленные улики, находятся свидетели, и генеральный прокурор Токио не верит в его невиновность. Стремясь доказать, что всё это подстроено, Мориока бежит из-под стражи и, скрываясь от правосудия, начинает собственное расследование...



Качество: BDRip 720p
Формат: MKV
Видео: MPEG-4 AVC, 5001 Кбит/с, 1280x522, 23.976 Кадр/с
Аудио 1: русский, AC3, 192 kbps, 2 ch, 48 kHz [дублированный, Мосфильм]
Аудио 2: русский, AC3, 192 kbps, 2 ch, 48 kHz [закадровый двухголосый, Синема престиж]
Аудио 3: японский, AC3, 192 kbps, 2 ch, 48 kHz [оригинал]
Главы/чаптеры
Общее
Уникальный идентификатор : 229489153465181348268649972557917465155 (0xACA600D574847B36893ADAB55F9C2A43)
Полное имя : D:\Video\Опасная погоня.1976.BDRip 720p by msltel.mkv
Формат : Matroska
Версия формата : Version 4
Размер файла : 5,89 Гбайт
Продолжительность : 2 ч. 31 м.
Общий поток : 5579 Кбит/сек
Дата кодирования : UTC 2019-03-15 09:05:50
Программа кодирования : mkvmerge v8.2.0 ('World of Adventure') 64bit
Библиотека кодирования : libebml v1.3.1 + libmatroska v1.4.2

Видео
Идентификатор : 1
Формат : AVC
Формат/Информация : Advanced Video Codec
Профиль формата : High@L4.1
Настройки формата : CABAC / 9 Ref Frames
Параметр CABAC формата : Да
Параметр RefFrames формата : 9 кадров
Идентификатор кодека : V_MPEG4/ISO/AVC
Продолжительность : 2 ч. 31 м.
Битрейт : 5001 Кбит/сек
Ширина : 1280 пикселей
Высота : 522 пикселя
Соотношение сторон : 2,452
Режим частоты кадров : Постоянный
Частота кадров : 23,976 (24000/1001) кадра/сек
Цветовое пространство : YUV
Субдискретизация насыщенности : 4:2:0
Битовая глубина : 8 бит
Тип развёртки : Прогрессивная
Бит/(Пиксели*Кадры) : 0.312
Размер потока : 5,28 Гбайт (90%)
Библиотека кодирования : x264 core 157 r2935 545de2f
Настройки программы : cabac=1 / ref=9 / deblock=1:-2:-2 / analyse=0x3:0x113 / me=umh / subme=11 / psy=1 / psy_rd=1.00:0.15 / mixed_ref=1 / me_range=32 / chroma_me=1 / trellis=2 / 8x8dct=1 / cqm=0 / deadzone=21,11 / fast_pskip=0 / chroma_qp_offset=-3 / threads=6 / lookahead_threads=1 / sliced_threads=0 / nr=0 / decimate=1 / interlaced=0 / bluray_compat=0 / constrained_intra=0 / bframes=11 / b_pyramid=2 / b_adapt=2 / b_bias=0 / direct=1 / weightb=1 / open_gop=0 / weightp=2 / keyint=230 / keyint_min=23 / scenecut=40 / intra_refresh=0 / rc_lookahead=40 / rc=crf / mbtree=1 / crf=19.0 / qcomp=0.60 / qpmin=0 / qpmax=69 / qpstep=4 / vbv_maxrate=50000 / vbv_bufsize=62500 / crf_max=0.0 / nal_hrd=none / filler=0 / ip_ratio=1.40 / aq=1:1.00
Язык : Japanese
Default : Да
Forced : Нет

Аудио #1
Идентификатор : 2
Формат : AC-3
Формат/Информация : Audio Coding 3
Коммерческое название : Dolby Digital
Идентификатор кодека : A_AC3
Продолжительность : 2 ч. 31 м.
Вид битрейта : Постоянный
Битрейт : 192 Кбит/сек
Каналы : 2 канала
Channel layout : L R
Частота : 48,0 КГц
Частота кадров : 31,250 кадров/сек (1536 SPF)
Битовая глубина : 16 бит
Метод сжатия : С потерями
Размер потока : 208 Мбайт (3%)
Заголовок : DUB Мосфильм
Язык : Russian
ServiceKind/String : Complete Main
Default : Да
Forced : Нет

Аудио #2
Идентификатор : 3
Формат : AC-3
Формат/Информация : Audio Coding 3
Коммерческое название : Dolby Digital
Идентификатор кодека : A_AC3
Продолжительность : 2 ч. 31 м.
Вид битрейта : Постоянный
Битрейт : 192 Кбит/сек
Каналы : 2 канала
Channel layout : L R
Частота : 48,0 КГц
Частота кадров : 31,250 кадров/сек (1536 SPF)
Битовая глубина : 16 бит
Метод сжатия : С потерями
Размер потока : 208 Мбайт (3%)
Заголовок : DVO Синема престиж
Язык : Russian
ServiceKind/String : Complete Main
Default : Нет
Forced : Нет

Аудио #3
Идентификатор : 4
Формат : AC-3
Формат/Информация : Audio Coding 3
Коммерческое название : Dolby Digital
Идентификатор кодека : A_AC3
Продолжительность : 2 ч. 31 м.
Вид битрейта : Постоянный
Битрейт : 192 Кбит/сек
Каналы : 2 канала
Channel layout : L R
Частота : 48,0 КГц
Частота кадров : 31,250 кадров/сек (1536 SPF)
Битовая глубина : 16 бит
Метод сжатия : С потерями
Размер потока : 208 Мбайт (3%)
Заголовок : original
Язык : Japanese
ServiceKind/String : Complete Main
Default : Нет
Forced : Нет

Меню
00:00:00.000 : :Chapter 1
00:16:05.089 : :Chapter 2
00:29:33.394 : :Chapter 3
00:39:21.483 : :Chapter 4
00:53:13.063 : :Chapter 5
01:05:04.358 : :Chapter 6
01:23:13.863 : :Chapter 7
01:32:59.363 : :Chapter 8
01:42:44.448 : :Chapter 9
01:56:50.502 : :Chapter 10
02:08:03.175 : :Chapter 11
02:21:49.459 : :Chapter 12
pb.wtf



Скачать Опасная погоня через торрент https://c.radikal.ru/c00/1903/e3/ce51da9f51db.jpg Скачать фильм Опасная погоня через торрент бесплантно в хорошем качестве О фильме: Прокурор Мориока арестован полицией по обвинению в грабежах и изнасиловании. В его квартире найдены многочисленные улики, ... 5 10 1
Торрент: Зарегистрирован [2019-03-15 06:52] · скачан: 0 раз
Статус: √ проверено
Размер: 5.89 GB
Как cкачать? Как скачать Опасная погоня через торрент | qTorrent

% Раздел Тема Автор DL S | L
Азиатские фильмы [ 15.28 GB ] Опасная погоня / Kimi yo fundo no kawa wo watare [1976 BDRip 1080p by msltel] DUB DVO msltel Скачать
1 | 0
Азиатские фильмы [ 1.37 GB ] Опасная погоня / Kimi yo fundo no kawa wo watare [1976 DVDRip] killermax2013 Скачать
1 | 0


>> Регистрируемся здесь <<






Отзывы и комментарии о схеме читаем и пишем здесь: ---> Отзывы и комментарии о схеме

Новые благодарочки в телеграм довольных пользователей:
скриншот   скриншот   скриншот   скриншот   скриншот
    Дорогой пользователь! Огромная просьба, поблагодарите релизера, оцените раздачу и оставьте свои комментарий, если Вы скачали Опасная погоня через торрент бесплатно! Внесите свою лепту в развитие PiratBit!
    Комментировать посты могут только пользователи прошедшие не сложную регистрацию
    Показать сообщения:    

    Опасная погоня через торрент
    Скачать бесплатно Опасная погоня
    Опасная погоня скачать торрент
    Опасная погоня смотреть онлайн
    Cкачать фильм Опасная погоня бесплатно
    Опасная погоня скачать торрент в хорошем качестве
    Опасная погоня смотреть онлайн бесплатно в хорошем качестве


    Вы не можете начинать темы
    Вы не можете отвечать на сообщения
    Вы не можете редактировать свои сообщения
    Вы не можете удалять свои сообщения
    Вы не можете голосовать в опросах
    Вы не можете прикреплять файлы к сообщениям
    Вы можете скачивать файлы