Marvel's Avengers Deluxe Edition (супер цена) 159р. Внимание количество ограничено!!!

2 сезон

iTunes

iTunes

1

iTunes

iTunes

iTunes

WEBRip

iTunes

30
pack

Новость дня

ВАЖНО

!!Акция!!

Alien_RageХит недели

RePack

Horizon Zero Dawn

ИГРА 18+

pack

RePack

jed

!!Акция!!

Alien_Rage

RePack

fifa19

RePack

Assassins Creed: Odyssey

RePack

NEED FOR SPEED™ PAYBACK

4 сезон

9 сезон

Бесстыжие 9 сезон

Все сериалы

все сериалы на PB.wtf

RePack

FAR CRY 5
  

Нечувствительный / Insensibles (Хуан Карлос Медина) [2012г., ужасы, фэнтези, триллер, HDRip] Профессиональный многоголосый [официальный звук] pb.wtf

Нечувствительный через торрент pb.wtf

Размер: 1.44 GB | Добавлен: 4 года 8 мес. назад | Торрент скачан:127 раз
Скачать  

08-01-2016 21:56 Нечувствительный Скачать торрент  

Нечувствительный / Insensibles
Год выпуска: 2012
Страна: Испания, Франция, Португалия
Жанр: ужасы, фэнтези, триллер, детектив
Продолжительность: 01:41:07

  • Перевод: Профессиональный многоголосый [официальный звук]
  • Оригинальная аудиодорожка: Нет

Режиссер: Хуан Карлос Медина
В ролях: Алекс Брендемюль (David), Томас Лемаркус (Berkano), Илиас Стотхарт (Benigno niño), Мот Харрис Данлоп Стотхарт (Benigno adolescente), Дерек де Линт (Dr. Holzmann), Рамон Фонтсере (Dr. Carcedo), Сильвия Бель (Judith), Беа Сегура (Magdalena), Хуан Диего (Adán Martel mayor), Феликс Гомес (Adán Martel joven), Ирена Монтала (Anaïs), Анхельс Поч (Clara Martel)
Описание: Группа детей, нечувствительных к боли, содержится во время испанской гражданской войны в сердце Пиреней. В наши дни блестящий нейрохирург обнаруживает, что у него опухоль и отправляется на поиски биологических родителей, чтобы получить костный мозг для пересадки. По ходу путешествия он узнает ужасные тайны прошлого своей страны.




  • Тип релиза: HDRip
  • Формат: AVI
  • Видео кодек: XviD | Аудио кодек: AC3
  • Видео: XviD, 720x304 (2.35:1), 1840 kbps, 25 fps, 0,336 bpp
  • Аудио: AC3 / 2.0 / 48 kHz / 192 kbps / 16 bit:
  • Сэмпл: скачать
General
Complete name : C:\торрент\тор\Ne4yvstviteljnyi.2012.P.HDRip.avi
Format : AVI
Format/Info : Audio Video Interleave
File size : 1.44 GiB
Duration : 1h 41mn
Overall bit rate : 2 042 Kbps
Writing application : VirtualDubMod 1.5.10.2 (build 2540/release)
Writing library : VirtualDubMod build 2540/release

Video
ID : 0
Format : MPEG-4 Visual
Format profile : Advanced Simple@L5
Format settings, BVOP : 2
Format settings, QPel : No
Format settings, GMC : No warppoints
Format settings, Matrix : Default (MPEG)
Codec ID : XVID
Codec ID/Hint : XviD
Duration : 1h 41mn
Bit rate : 1 841 Kbps
Width : 720 pixels
Height : 304 pixels
Display aspect ratio : 2.35:1
Frame rate : 25.000 fps
Color space : YUV
Chroma subsampling : 4:2:0
Bit depth : 8 bits
Scan type : Progressive
Compression mode : Lossy
Bits/(Pixel*Frame) : 0.336
Stream size : 1.30 GiB (90%)
Writing library : XviD 1.2.1 (UTC 2008-12-04)

Audio
ID : 1
Format : AC-3
Format/Info : Audio Coding 3
Mode extension : CM (complete main)
Codec ID : 2000
Duration : 1h 41mn
Bit rate mode : Constant
Bit rate : 192 Kbps
Channel(s) : 2 channels
Channel positions : Front: L R
Sampling rate : 48.0 KHz
Bit depth : 16 bits
Compression mode : Lossy
Stream size : 139 MiB (9%)
Alignment : Split accross interleaves
Interleave, duration : 40 ms (1.00 video frame)
Interleave, preload duration : 500 ms
pb.wtf



Скачать Нечувствительный через торрент http://i76.fastpic.ru/big/2016/0109/cf/8299887a44bea0ac4497bdca03ec1ccf.jpg Скачать фильм Нечувствительный через торрент бесплантно в хорошем качестве Описание: Группа детей, нечувствительных к боли, содержится во время испанской гражданской войны в сердце Пиреней. В наши дни блестящий ... 10 10 9
Info! Золотая раздача, скачанное не засчитывается.
Торрент: Зарегистрирован [2016-01-08 21:56] · скачан: 127 раз
Статус: T временная
Размер: 1.44 GB
Как cкачать? Как скачать Нечувствительный через торрент | qTorrent

28-11-2019 20:33  

Отключить всю рекламу на сайте

13-04-2019 08:21 Нечувствительный Скачать торрент  

Мне понравился !)pb.wtf



    Дорогой пользователь! Огромная просьба, поблагодарите релизера, оцените раздачу и оставьте свои комментарий, если Вы скачали Нечувствительный через торрент бесплатно! Внесите свою лепту в развитие PiratBit!
    Комментировать посты могут только пользователи прошедшие не сложную регистрацию
    Показать сообщения:    

    Нечувствительный через торрент
    Скачать бесплатно Нечувствительный
    Нечувствительный скачать торрент
    Нечувствительный смотреть онлайн
    Cкачать фильм Нечувствительный бесплатно
    Нечувствительный скачать торрент в хорошем качестве
    Нечувствительный смотреть онлайн бесплатно в хорошем качестве


    Вы не можете начинать темы
    Вы не можете отвечать на сообщения
    Вы не можете редактировать свои сообщения
    Вы не можете удалять свои сообщения
    Вы не можете голосовать в опросах
    Вы не можете прикреплять файлы к сообщениям
    Вы можете скачивать файлы