Мега распродажа FORZA HORIZON 4 ULTIMATE+ВСЕ DLC+ОНЛАЙН всего за 499р. 349 руб. (супер цена). Внимание количество ограничено!!!

iTunes

1+1

iTunes

мы

iTunes

1

1 сезон

Чернобыль

1 сезон

Ральф против интернета

Лицензия

ПШазам

8 сезон

Игра престолов

Лицензия

30
pack

ВАЖНО

!!Акция!!

Alien_RageХит недели

RePack

Resident Evil 21

ИГРА 18+

pack

RePack

Metro:Exodus

!!Акция!!

Alien_Rage

RePack

fifa19

RePack

Assassins Creed: Odyssey

RePack

NEED FOR SPEED™ PAYBACK

3 сезон

9 сезон

Бесстыжие 9 сезон

Все сериалы

все сериалы на PB.wtf

RePack

FAR CRY 5
Ребята, катастрофически не хватает 2730р. для оплаты серверов за ИЮНЬ (всвязи с блокировками трафик упал в 3 раза), 1-2р., выручайте.
  

Доктор Хэрроу / Харроу / Harrow / Сезон: 2 / Серии: 1-10 из 10 (Тони Кравиц) [2019, драма, HDTVRip 1080p] [MVO] (AlexFilm) pb.wtf

Доктор Хэрроу через торрент pb.wtf

Раздают: 1 [ 465 KB/s ] Качают: 3 [ 0 KB/s ]
Размер: 13.43 GB | Добавлен: 1 ч. 37 мин. назад | Торрент скачан:1 раз
Скачать  

16-05-2019 18:27 Доктор Хэрроу Скачать торрент  

Доктор Хэрроу / Харроу | Harrow
«The truth can never be buried»

Производство: США, Австралия
Год выпуска: 2019
Жанр: драма
Продолжительность: ~ 00:52:00 серия
Перевод: Профессиональный (многоголосый закадровый) |AlexFilm|
Режиссер: Тони Кравиц, Дэниэл Неттхейм, Питер Сэлмон

Актеры: Йоан Гриффит, Мирра Фолкс, Дэмиен Гарви, Реми Хий, Робин Малкольм, Элла Ньютон, Анна Лизе Филлипс, Патрис Кокс, Мартиниа О’Салливан, Пари Парандуш
Описание:
Сериал расскажет историю судебного патологоанатома доктора Даниэля Харроу, специалиста по решению запутанных дел об убийствах, готового нарушить любые правила, чтобы дать своим жертвам шанс "высказаться" и изобличить своего убийцу. Однако, когда некая страшная тайна из прошлого Даниэля грозит разрушить его семью, карьеру и даже угрожает его собственной жизни, главному герою приходится применить все свои уникальные навыки чтобы одно преступление так и осталось не раскрытым.

скриншот  

Качество видео: HDTVRip 1080p
Формат: MKV
Видео: AVC, 1920 x 1080 (1.778), 25.000 fps, ~3546 kbps
Аудио Rus: AC-3, 48 kHz, 2 ch, 192 kbps |AlexFilm|
Аудио Eng: AC-3, 48 kHz, 2 ch, 192 kbps |Original|
Субтитры: English
Релиз:

Перевод: Алиса Голланова
Монтаж и сведение звука: Михаил Шорыгин
Роли озвучивали:
    • Маргарита Корш
    • Екатерина Муравицкая
    • Кирилл Патрино
    • Константин Федосеев
    • Михаил Цареградский
    • Михаил Федосеев

Общее
Уникальный идентификатор : 279240564031906941474626395024131108382 (0xD213C6C1DDBDBB320B84142CC9B02E1E)
Полное имя : E:\_Сериалы\_Сериалы\AlexFilm\Harrow.s02.HDTV.1080p.Rus.Eng.AlexFilm\Harrow.s02e01.HDTV.1080p.Rus.Eng.AlexFilm.mkv
Формат : Matroska
Версия формата : Version 4
Размер файла : 1,43 Гбайт
Продолжительность : 51 м. 59 с.
Общий поток : 3932 Кбит/сек
Дата кодирования : UTC 2019-05-16 16:25:31
Программа кодирования : mkvmerge v31.0.0 ('Dolores In A Shoestand') 64-bit
Библиотека кодирования : libebml v1.3.6 + libmatroska v1.4.9

Видео
Идентификатор : 1
Формат : AVC
Формат/Информация : Advanced Video Codec
Профиль формата : High@L4
Настройки формата : CABAC / 4 Ref Frames
Параметр CABAC формата : Да
Параметр RefFrames формата : 4 кадра
Идентификатор кодека : V_MPEG4/ISO/AVC
Продолжительность : 51 м. 59 с.
Битрейт : 3546 Кбит/сек
Ширина : 1920 пикселей
Высота : 1080 пикселей
Соотношение сторон : 16:9
Режим частоты кадров : Постоянный
Частота кадров : 25,000 кадров/сек
Стандарт вещания : Component
Цветовое пространство : YUV
Субдискретизация насыщенности : 4:2:0
Битовая глубина : 8 бит
Тип развёртки : MBAFF
Бит/(Пиксели*Кадры) : 0.068
Размер потока : 1,29 Гбайт (90%)
Default : Да
Forced : Нет
Цветовой диапазон : Limited

Аудио #1
Идентификатор : 2
Формат : AC-3
Формат/Информация : Audio Coding 3
Коммерческое название : Dolby Digital
Идентификатор кодека : A_AC3
Продолжительность : 51 м. 59 с.
Вид битрейта : Постоянный
Битрейт : 192 Кбит/сек
Каналы : 2 канала
Channel layout : L R
Частота : 48,0 КГц
Частота кадров : 31,250 кадров/сек (1536 SPF)
Битовая глубина : 16 бит
Метод сжатия : С потерями
Размер потока : 71,4 Мбайт (5%)
Заголовок : DD 2.0 AlexFilm
Язык : Russian
ServiceKind/String : Complete Main
Default : Да
Forced : Нет

Аудио #2
Идентификатор : 3
Формат : AC-3
Формат/Информация : Audio Coding 3
Коммерческое название : Dolby Digital
Идентификатор кодека : A_AC3
Продолжительность : 51 м. 59 с.
Вид битрейта : Постоянный
Битрейт : 192 Кбит/сек
Каналы : 2 канала
Channel layout : L R
Частота : 48,0 КГц
Частота кадров : 31,250 кадров/сек (1536 SPF)
Битовая глубина : 16 бит
Метод сжатия : С потерями
Размер потока : 71,4 Мбайт (5%)
Заголовок : Eng
Язык : English
ServiceKind/String : Complete Main
Default : Нет
Forced : Нет

Текст
Идентификатор : 4
Формат : UTF-8
Идентификатор кодека : S_TEXT/UTF8
Идентификатор кодека/Информация : UTF-8 Plain Text
Продолжительность : 51 м. 53 с.
Битрейт : 70 бит/сек
ElementCount : 849
Размер потока : 26,6 Кбайт (0%)
Язык : English
Default : Нет
Forced : Нет

скриншот   скриншот   скриншот   скриншот   скриншот   скриншот   скриншот  
скриншот  

Раздача ведётся путём добавления новых серий; при каждом добавлении создаётся новый торрент.
Чтобы начать докачку новой серии, пользователям необходимо сделать следующее:
1. остановить скачивание,
2. удалить старый торрент у себя из клиента (старые серии удалять не надо),
3. скачать новый торрент и запустить его у себя в клиенте вместо старого, при этом указать клиенту путь в старую папку, куда и должно происходить скачивание новых серий.

Ваш клиент при этом должен произвести хеширование (проверку) старой папки (если не производит сам - помогите ему сделать это), и будет докачивать только те серии которых у вас ещё нет. Старые серии при этом не удаляются, а продолжают раздаваться!

Eсли вы уже удалили старые серии, то предотвратить повторную закачку старых серий можно, отжав галочку в соответствующих местах при запуске нового торрента. По возможности, желательно не удалять старые серии как можно дольше, чтобы релизёр не столько продолжал раздавать старые серии, а смог сконцентрироваться на новых.

Совет для тех, кто не хочет ждать перехеширования:
Создайте ещё одну папку рядом с папкой сериала (рядом, а не в ней!!!). Каждую новую серию после удачной загрузки копируйте в новую папку так чтобы ваша основная папка всегда была пуста. Когда ваш новый торрент предложит вам закачать все файлы, выберете только последнюю. Для сидирования же укажите адрес новой папки.

Как закачать отдельный файл из торрента или докачать ранее пропущенные файлы торрента!

1. Открыть торрент
2. Снять галки с тех файлов торрента, которые мы не хотим закачивать. Оставляем только на нужных нам файлах (файле).
3. Нажать О.К.

В клиенте utorrent

Инструкция

1) Открыть торрент


2) Снять галки с тех файлов торрента, которые мы не хотим закачивать:

* либо вручную, снимая с каждого файла галку( скрин №1)
* либо, нажав кнопку "Снять метки (Select None)", сняв сразу со всех файлов(скрин №2)
№1

№2

Оставляем только на нужных нам файлах (файле).

3)Нажать О.К

Приятного просмотра!!!pb.wtf



Скачать Доктор Хэрроу через торрент https://i1.imageban.ru/out/2019/05/16/24cef4396a41dd8c0d1a616f08404c1f.png Скачать фильм Доктор Хэрроу через торрент бесплантно в хорошем качестве Описание:Сериал расскажет историю судебного патологоанатома доктора Даниэля Харроу, специалиста по решению запутанных дел об убийствах, ... 7.2 10 6
Торрент: Зарегистрирован [2019-07-17 16:04] · скачан: 1 раз
Статус: √ проверено
Размер: 13.43 GB
Как cкачать? Как скачать Доктор Хэрроу через торрент | qTorrent

% Раздел Тема Автор DL S | L
Зарубежные сериалы [ 7.22 GB ] Доктор Хэрроу / Харроу / Harrow / Сезон: 2 / Серии: 1-10 из 10 [2019 HDTVRip] [MVO] killermax2013 Скачать
1 | 2


Последний раз редактировалось: killermax2013 (2019-07-17 16:04), всего редактировалось 1 раз


>> Регистрируемся здесь <<






Отзывы и комментарии о схеме читаем и пишем здесь: ---> Отзывы и комментарии о схеме

Новые благодарочки в телеграм довольных пользователей:
скриншот   скриншот   скриншот   скриншот   скриншот

04-07-2019 00:03 Доктор Хэрроу Скачать торрент  

Спасибо!!! Очень сериал гуд!!!pb.wtf



    Дорогой пользователь! Огромная просьба, поблагодарите релизера, оцените раздачу и оставьте свои комментарий, если Вы скачали Доктор Хэрроу через торрент бесплатно! Внесите свою лепту в развитие PiratBit!
    Комментировать посты могут только пользователи прошедшие не сложную регистрацию
    Показать сообщения:    

    Доктор Хэрроу через торрент
    Скачать бесплатно Доктор Хэрроу
    Доктор Хэрроу скачать торрент
    Доктор Хэрроу смотреть онлайн
    Cкачать фильм Доктор Хэрроу бесплатно
    Доктор Хэрроу скачать торрент в хорошем качестве
    Доктор Хэрроу смотреть онлайн бесплатно в хорошем качестве


    Вы не можете начинать темы
    Вы не можете отвечать на сообщения
    Вы не можете редактировать свои сообщения
    Вы не можете удалять свои сообщения
    Вы не можете голосовать в опросах
    Вы не можете прикреплять файлы к сообщениям
    Вы можете скачивать файлы