Архив 81

1 сезон

Добыча

Дубляж

Тед Лассо

3 сезон

Тор

1 сезон

13 клиническая

3 сезон

Жестокая ночь

Дубляж

Одни из нас

Лицензия

The Last of Us игра на PC

Extended

Deluxe

Deluxe

pack

Рекомендуем

30

Repack

ВАЖНО

ВАЖНО

Ghostwire

Пиратка

jed

RePack

nioh2

RePack

RDR2

RePack

NEED FOR SPEED™ PAYBACK

RePack

скачать торрент

Кинопоиск HD

Острые козырьки 6 сезон

6 сезон

FAR CRY 6

RePack

скачать торрент

Лицензия

скачать торрент

MVO

1

1 сезон

скачать торрент

1 сезон

скачать торрент

Лицензия

  

Игра Престолов / Game of Thrones / Сезон: 8 / Серии: 1-6 из 6 (Алан Тейлор, Даниэль Минахан, Дэвид Наттер) [2019, Фэнтези, драма, приключения, WEB-DLRip] MVO [AMS]

Игра Престолов через торрент pb.wtf

Размер: 8.78 GB | Добавлен: 3 года 9 мес. назад | Торрент скачан:9 раз
Смотреть онлайн | Скачать | Поддержите нас   

16-04-2019 04:29 Игра Престолов Скачать торрент  

═╬ Игра престолов / Game of Thrones ╬═ Год выпуска: 2019
Страна: США
Жанр: Фэнтези, драма, приключения, экранизация
Продолжительность: ~ 01:00:00
Перевод: Профессиональный (многоголосый закадровый) | AMS
Субтитры: отсутствуют

Режиссёр: Алан Тейлор, Даниэль Минахан, Дэвид Наттер



В ролях:

Лена Хиди, Питер Динклэйдж, Мишель Фэйрли, Эмилия Кларк, Кит Харингтон, Николай Костер-Валдау, Иэн Глен, Эйден Гиллен, Элфи Оуэн-Аллен, Мэйси Уильямс, Сибель Кекилли, Джеймс Космо, Стивен Диллэйн, Гетин Энтони, Гвендолин Кристи, Натали Дормер и другие

Описание:

«Игра престолов» новый сериал HBO, основанный на бестселлерах Джорджа Р.Р. Мартина. В мире, где лето и зимы длятся десятилетиями, на кону корона Вестероса. Предательство, похоть, интриги и сверхъестественные силы сотрясают все четыре стороны Королевства — от плетущего интриги юга, диких восточных земель, до замерзшего севера и древней Стены, что защищает королевство от тьмы за нею. Короли и королевы, рыцари и мятежники, лжецы и благородные люди борются за Влacть в кровавом сражении за Железный Трон.

Качество: WEB-DLRip
Формат: AVI

Видео: XviD, 720x400 (16:9), 23.976 fps, ~ 2087 kbps, 0.302 bit/pixel
Аудио 1: Русский, AC3, 48 KHz, 6 channels, 384 kbps
Аудио 2: Английский, AC3, 48 KHz, 6 channels, 384 kbps


Реклама: Присутствует звуковая (два раза: в начале и конце по 12 сек)
General
Complete name : /Game.of.Thrones.S08.400p.WEB-DLRip.AMS/Game.of.Thrones.S08E01.400p.WEB-DL.AMS.avi
Format : AVI
Format/Info : Audio Video Interleave
File size : 1.12 GiB
Duration : 55mn 45s
Overall bit rate : 2 872 Kbps

Video
ID : 0
Format : MPEG-4 Visual
Format profile : Advanced [email protected]
Format settings, BVOP : 2
Format settings, QPel : No
Format settings, GMC : No warppoints
Format settings, Matrix : Default (MPEG)
Codec ID : XVID
Codec ID/Hint : XviD
Duration : 55mn 45s
Bit rate : 2 087 Kbps
Width : 720 pixels
Height : 400 pixels
Display aspect ratio : 16:9
Frame rate : 23.976 (24000/1001) fps
Color space : YUV
Chroma subsampling : 4:2:0
Bit depth : 8 bits
Scan type : Progressive
Compression mode : Lossy
Bits/(Pixel*Frame) : 0.302
Stream size : 832 MiB (73%)
Writing library : XviD 67

Audio #1
ID : 1
Format : AC-3
Format/Info : Audio Coding 3
Mode extension : CM (complete main)
Format settings, Endianness : Big
Codec ID : 2000
Duration : 55mn 45s
Bit rate mode : Constant
Bit rate : 384 Kbps
Channel(s) : 6 channels
Channel positions : Front: L C R, Side: L R, LFE
Sampling rate : 48.0 KHz
Frame rate : 31.250 fps (1536 spf)
Compression mode : Lossy
Stream size : 153 MiB (13%)
Alignment : Aligned on interleaves
Interleave, duration : 32 ms (0.77 video frame)

Audio #2
ID : 2
Format : AC-3
Format/Info : Audio Coding 3
Mode extension : CM (complete main)
Format settings, Endianness : Big
Codec ID : 2000
Duration : 55mn 45s
Bit rate mode : Constant
Bit rate : 384 Kbps
Channel(s) : 6 channels
Channel positions : Front: L C R, Side: L R, LFE
Sampling rate : 48.0 KHz
Frame rate : 31.250 fps (1536 spf)
Bit depth : 16 bits
Compression mode : Lossy
Stream size : 153 MiB (13%)
Alignment : Aligned on interleaves
Interleave, duration : 32 ms (0.77 video frame)
Внимание! Раздача ведётся путём добавления новых серий; при каждом добавлении создаётся новый торрент. Чтобы начать докачку новой серии, пользователям необходимо сделать следующее:

1) остановить скачивание,
2) удалить старый торрент у себя из клиента (старые серии удалять не надо),
3) скачать новый торрент и запустить его у себя в клиенте вместо старого, при этом указать клиенту путь в старую папку куда и должно происходить скачивание новых серий.

Ваш клиент при этом должен произвести хеширование (проверку) старой папки (если не производит сам - помогите ему сделать это), и будет докачивать только те серии которых у вас ещё нет. Старые серии при этом не удаляются, а продолжают раздаваться!

Eсли вы уже удалили старые серии, то предотвратить повторную закачку старых серий можно, отжав галочку в соответствующих местах при запуске нового торрента. По возможности, желательно не удалять старые серии как можно дольше чтобы релизёр не столько продолжал раздавать старые серии, а смог сконцентрироваться на новых.»[url=viewtopic.php?t=609808]Как закачать отдельный файл из торрента или докачать ранее пропущенные файлы торрента![/url]«




Скачать Игра Престолов через торрент https://www.thetvdb.com/banners/graphical/5c8c227dbd218.jpg Скачать, смотреть онлайн Игра Престолов бесплантно в хорошем качестве Описание:«Игра престолов» новый сериал HBO, основанный на бестселлерах Джорджа Р.Р. Мартина. В мире, где лето и зимы длятся десятилетиями, ... 9.9 10 13
Торрент: Зарегистрирован [2019-05-29 19:52] · скачан: 9 раз
Статус: √ проверено
Размер: 8.78 GB
Как cкачать? Как скачать Игра Престолов через торрент | UTorrent

% Раздел Тема Автор DL S | L
Игра престолов [ 109.58 GB ] Игра престолов / Game of Thrones / Сезон: 1-8 из 8 / Серии: 1-73 из 73 | DUB | DLRip 1080p sheker187 Скачать
4 | 4
Игра престолов [ 322.59 GB ] Игра престолов / Game of Thrones / Сезон: 1-8 из 8 / Серии: 1-73 из 73 | LostFilm | DLRip 1080p sheker187 Скачать
2 | 3
Игра престолов [ 297.23 GB ] Игра престолов / Game of Thrones / Сезон: 1-7 из 7 / Серии: 1-67 из 67 | LostFilm | 1080p sheker187 Скачать
1 | 0
Игра престолов [ 7.26 GB ] Игра Престолов / Game of Thrones / Сезон: 8 / Серии: 1-6 из 6 | Лицензия | BDRip Twi7ter Скачать
9 | 3
Игра престолов [ 25.89 GB ] Игра престолов / Game of Thrones / Сезон: 8 / Серии: 1-6 из 6 | Amedia | 1080p bober100 Скачать
1 | 0
Игра престолов [ 13.35 GB ] Игра престолов / Game of Thrones / Сезон: 8 / Серии: 1-6 из 6 | Amedia 5.1 | 720p bober100 Скачать
1 | 0
Игра престолов [ 7.41 GB ] Игра Престолов / Game of Thrones / Сезон: 8 / Серии: 1-6 из 6 | Дубляж - | DLRip Twi7ter Скачать
2 | 0



Последний раз редактировалось: bober100 (2019-05-29 19:52), всего редактировалось 1 раз

28-11-2019 20:33  


Отключить вcю реклaмy на сайте, в т.ч. и в плеере онлайн просмотра!

15-05-2019 15:19 Игра Престолов Скачать торрент  

нет перевода



19-05-2019 20:23 Игра Престолов Скачать торрент  

как нет перевода?Я лично смотрел 4-5 серию перевод есть норм,лучше чем новамедия



    Дорогой пользователь! Огромная просьба, поблагодарите релизера, оцените раздачу и оставьте свои комментарий, если Вы скачали Игра Престолов через торрент бесплатно!!
    Комментировать посты могут только пользователи прошедшие не сложную регистрацию
    Показать сообщения:    


    Игра Престолов через торрент
    Скачать бесплатно Игра Престолов
    Игра Престолов скачать торрент
    Игра Престолов смотреть онлайн
    Cкачать фильм Игра Престолов бесплатно
    Игра Престолов скачать торрент в хорошем качестве
    Игра Престолов смотреть онлайн бесплатно в хорошем качестве
    Вы не можете начинать темы
    Вы не можете отвечать на сообщения
    Вы не можете редактировать свои сообщения
    Вы не можете удалять свои сообщения
    Вы не можете голосовать в опросах
    Вы не можете прикреплять файлы к сообщениям
    Вы можете скачивать файлы
    Игра Престолов / Game of Thrones / Сезон: 8 / Серии: 1-6 из 6 [2019, Фэнтези, драма, приключения, WEB-DLRip] MVO [AMS] смотреть онлайн, скачать торрент picoco.icu