Мега распродажа FORZA HORIZON 4 ULTIMATE+ВСЕ DLC+ОНЛАЙН всего за 499р. 349 руб. (супер цена). Внимание количество ограничено!!!

iTunes

1+1

iTunes

мы

iTunes

1

1 сезон

Чернобыль

1 сезон

Ральф против интернета

Лицензия

ПШазам

8 сезон

Игра престолов

Лицензия

30
pack

ВАЖНО

!!Акция!!

Alien_RageХит недели

RePack

Resident Evil 21

ИГРА 18+

pack

RePack

Metro:Exodus

!!Акция!!

Alien_Rage

RePack

fifa19

RePack

Assassins Creed: Odyssey

RePack

NEED FOR SPEED™ PAYBACK

3 сезон

9 сезон

Бесстыжие 9 сезон

Все сериалы

все сериалы на PB.wtf

RePack

FAR CRY 5
Ребята, катастрофически не хватает 2730р. для оплаты серверов за ИЮНЬ (всвязи с блокировками трафик упал в 3 раза), 1-2р., выручайте.
  

Джетт / Jett / Сезон: 1 / Серии: 1-5 из 9 (Себастьян Гутьеррес) [2019, драма, криминал, WEBRip 1080p] [MVO] (TVShows) pb.wtf

Джетт через торрент pb.wtf

Раздают: 2 [ 2 MB/s ]
Размер: 15.97 GB | Добавлен: 16 ч. назад | Торрент скачан:3 раза
Скачать  

19-06-2019 18:04 Джетт Скачать торрент  

Джетт / Jett

Год выпуска: 2019
Страна: США
Жанр: драма
Продолжительность: ~01:00:00 серия
Перевод: Профессиональный (многоголосый) | *TVShows*

Режиссер: Себастьян Гутьеррес

В ролях:

Карла Гуджино, Джанкарло Эспозито, Елена Анайя, Майкл Аронов, Гайте Янсен, Кристофер Бакус, Джил Беллоуз, Вайолет МакГроу, Люси Уолтерс, Мустафа Жакир

Описание:

Дейзи Джетт Ковальски — воровка экстра-класс, только освободившаяся из тюрьмы и вынужденная снова заняться тем, что у неё получается лучше всего — опустошать чужие сейфы. Ради последнего большого дела она собирает команду колоритных сообщников. Главную роль в «Джетт» исполняет одна из лучших современных американских актрис Карла Гуджино, последнее время играющая в хоррорах (например, в «Призраках дома на холме»), но здесь блистающая в образе героини боевика. За сценарий и режиссуру проекта отвечал автор «Поцелуя Иуды» и «Медового месяца» Себастьян Гутьеррес.

rating


Качество: WEBRip 1080p
Формат: MKV
Видео: MPEG4 AVC Video, H264, 16:9, 1920x1080, 23.976 fps, ~6093 kbps
Аудио: Russian (AC3, 6 ch, 384 kbps, 16 bits, 48.0 KHz) - MVO
Аудио 2: English (E-AC3, 6 ch, 640 kbps, 16 bits, 48.0 KHz) - оригинал
Субтитры: английские
General
Unique ID : 5944548271913360630031682968924617215 (0x478E0DBB1D055F4C1164172D64679FF)
Complete name : C:\Users\Desktop\Jett.S01.1080p.TVShows\Jett.S01E01.1080p.TVShows.mkv
Format : Matroska
Format version : Version 4 / Version 2
File size : 3.37 GiB
Duration : 1 h 7 min
Overall bit rate : 7 120 kb/s
Encoded date : UTC 2019-06-18 07:09:15
Writing application : mkvmerge v33.1.0 ('Primrose') 64-bit
Writing library : libebml v1.3.7 + libmatroska v1.5.0

Video
ID : 1
Format : AVC
Format/Info : Advanced Video Codec
Format profile : High@L4
Format settings : CABAC / 4 Ref Frames
Format settings, CABAC : Yes
Format settings, ReFrames : 4 frames
Codec ID : V_MPEG4/ISO/AVC
Duration : 1 h 7 min
Bit rate mode : Constant
Bit rate : 6 093 kb/s
Nominal bit rate : 10 000 kb/s
Width : 1 920 pixels
Height : 1 080 pixels
Display aspect ratio : 16:9
Frame rate mode : Constant
Frame rate : 23.976 (24000/1001) FPS
Color space : YUV
Chroma subsampling : 4:2:0
Bit depth : 8 bits
Scan type : Progressive
Bits/(Pixel*Frame) : 0.123
Stream size : 2.88 GiB (86%)
Language : English
Default : Yes
Forced : No
Color range : Limited
Color primaries : BT.709
Transfer characteristics : BT.709
Matrix coefficients : BT.709

Audio #1
ID : 2
Format : AC-3
Format/Info : Audio Coding 3
Codec ID : A_AC3
Duration : 1 h 7 min
Bit rate mode : Constant
Bit rate : 384 kb/s
Channel(s) : 6 channels
Channel positions : Front: L C R, Side: L R, LFE
Sampling rate : 48.0 kHz
Frame rate : 31.250 FPS (1536 SPF)
Bit depth : 16 bits
Compression mode : Lossy
Stream size : 186 MiB (5%)
Title : TVShows
Language : Russian
Service kind : Complete Main
Default : Yes
Forced : Yes

Audio #2
ID : 3
Format : E-AC-3
Format/Info : Enhanced Audio Coding 3
Codec ID : A_EAC3
Duration : 1 h 7 min
Bit rate mode : Constant
Bit rate : 640 kb/s
Channel(s) : 6 channels
Channel positions : Front: L C R, Side: L R, LFE
Sampling rate : 48.0 kHz
Frame rate : 187.500 FPS (256 SPF)
Compression mode : Lossy
Delay relative to video : 20 ms
Stream size : 310 MiB (9%)
Title : Original
Language : English
Service kind : Complete Main
Default : No
Forced : No

Text
ID : 4
Format : UTF-8
Codec ID : S_TEXT/UTF8
Codec ID/Info : UTF-8 Plain Text
Duration : 1 h 7 min
Bit rate : 63 b/s
Count of elements : 1046
Stream size : 31.4 KiB (0%)
Title : English
Language : English
Default : No
Forced : No
скриншот  скриншот  скриншот  
Когда раздача ведётся путём добавления новых серий, при каждом добавлении создётся новый торрент. Чтобы начать докачку новой серии, пользователям необходимо сделать следующее:
(1) остановить скачивание,
(2) удалить старый торрент у себя из клиента (старые серии удалять не надо),
(3) скачать новый торрент и запустить его у себя в клиенте вместо старого, при этом указать клиенту путь в старую папку, куда и должно происходить скачивание новых серий.
Ваш клиент при этом должен произвести хеширование (проверку) старой папки (если не производит сам - помогите ему сделать это), и будет докачивать только те серии, которых у вас ещё нет. Старые серии при этом не удаляются, а продолжают раздаваться!
Eсли вы уже удалили старые серии, то предотвратить повторную закачку старых серий можно, отжав галочку в соответсвующих местах при запуске нового торрента. По возможности, желательно не удалять старые серии как можно дольше, чтобы релизер не столько продолжал раздавать старые серии, а смог сконцентрироваться на новых.
pb.wtf



Скачать Джетт через торрент https://i110.fastpic.ru/big/2019/0618/2c/be37473ac5d3e1a1f8733364d1111f2c.jpg Скачать фильм Джетт через торрент бесплантно в хорошем качестве Описание: Дейзи Джетт Ковальски — воровка экстра-класс, только освободившаяся из тюрьмы и вынужденная снова заняться тем, что у неё ... 10 10 3
Торрент: Зарегистрирован [2019-07-16 19:28] · скачан: 3 раз
Статус: √ проверено
Размер: 15.97 GB
Как cкачать? Как скачать Джетт через торрент | qTorrent

% Раздел Тема Автор DL S | L
Зарубежные сериалы [ 4.91 GB ] Джетт / Jett / Сезон: 1 / Серии: 1-5 из 9 [2019 WEBRip] [MVO] killermax2013 Скачать
2 | 1


>> Регистрируемся здесь <<






Отзывы и комментарии о схеме читаем и пишем здесь: ---> Отзывы и комментарии о схеме

Новые благодарочки в телеграм довольных пользователей:
скриншот   скриншот   скриншот   скриншот   скриншот
    Дорогой пользователь! Огромная просьба, поблагодарите релизера, оцените раздачу и оставьте свои комментарий, если Вы скачали Джетт через торрент бесплатно! Внесите свою лепту в развитие PiratBit!
    Комментировать посты могут только пользователи прошедшие не сложную регистрацию
    Показать сообщения:    

    Джетт через торрент
    Скачать бесплатно Джетт
    Джетт скачать торрент
    Джетт смотреть онлайн
    Cкачать фильм Джетт бесплатно
    Джетт скачать торрент в хорошем качестве
    Джетт смотреть онлайн бесплатно в хорошем качестве


    Вы не можете начинать темы
    Вы не можете отвечать на сообщения
    Вы не можете редактировать свои сообщения
    Вы не можете удалять свои сообщения
    Вы не можете голосовать в опросах
    Вы не можете прикреплять файлы к сообщениям
    Вы можете скачивать файлы