новый адрес
Ссылка на приватное зеркало всего за 1$. Внимание количество ограничено!!!

iTunes

1+1

iTunes

мы

iTunes

1

iTunes

Чернобыль

iTunes

Ральф против интернета

Лицензия

ПШазам

Лицензия

Оно 2

Лицензия

30
pack

Вам бонус

ВАЖНО

!!Акция!!

Alien_RageХит недели

RePack

Resident Evil 21

ИГРА 18+

pack

RePack

jed

!!Акция!!

Alien_Rage

RePack

fifa19

RePack

Assassins Creed: Odyssey

RePack

NEED FOR SPEED™ PAYBACK

3 сезон

9 сезон

Бесстыжие 9 сезон

Все сериалы

все сериалы на PB.wtf

RePack

FAR CRY 5
Ребята, катастрофически не хватает 1900р. для оплаты серверов за Октябрь (всвязи с блокировками трафик упал в 3 раза), 1-2р., выручайте.
  

Обитель страха / Ветер / The Wind (Эмма Тамми) [2018, Ужасы, вестерн, BDRip-AVC] DUB [iTunes] pb.wtf

Обитель страха через торрент pb.wtf

Размер: 1.63 GB | Добавлен: 2 мес. 12 д. назад | Торрент скачан:119 раз
Скачать  

09-09-2019 13:17 Обитель страха Скачать торрент  

Обитель страха / Ветер / The Wind«It never stops»
Год выпуска: 2018
Страна: США
Жанр: Ужасы, вестерн
Продолжительность: 01:27:58
Перевод: Дублированный | iTunes
Субтитры: Русские (полные), английские (полные, SDH)

Режиссер: Эмма Тамми

rating

В ролях: Майлз Андерсон, Кейтлин Джерард, Джулия Голден Теллес, Дилан МакТи, Мартин Си Паттерсон, Эшли Цукерман

Описание: Дикий Запад, конец XIX века. Где-то в бескрайних прериях живёт молодая пара. Муж часто отлучается на заработки в город и оставляет Лиззи одну, поэтому она очень обрадовалась, когда рядом поселилась ещё одна семейная пара. Теперь женщине есть с кем поговорить и провести время. Но забеременев, новая подруга начинает странно себя вести и утверждать, что где-то поблизости бродит нечто потустороннее.

Качество: BDRip-AVC
Формат: MKV

Видео: 1024x432 (2.40:1), 23,976 fps, x264 ~1 824 kbps avg, 0.172 bit/pixel
Аудио#1: 48 kHz, AC3 Dolby Digital, 3/2 (L,C,R,l,r) + LFE ch, ~384.00 kbps avg | RUS (iTunes)
Аудио#2: 48 kHz, AC3 Dolby Digital, 3/2 (L,C,R,l,r) + LFE ch, ~448.00 kbps avg | ENG
скриншот  скриншот  скриншот  скриншот  скриншот  

Общее
Уникальный идентификатор : 184426213515811955932875698017918269956 (0x8ABF325BD95CCE30C196774712783A04)
Полное имя : F:OlLanDGroupThe.Wind.2018.BDRip(AVC).OlLanDGroup.mkv
Формат : Matroska
Версия формата : Version 4 / Version 2
Размер файла : 1,63 Гбайт
Продолжительность : 1 ч. 28 м.
Общий поток : 2655 Кбит/сек
Название фильма : The Wind 2018 #TorpedoUK#
Дата кодирования : UTC 2019-09-09 11:53:21
Программа кодирования : mkvmerge v29.0.0 ('Like It Or Not') 64-bit
Библиотека кодирования : libebml v1.3.6 + libmatroska v1.4.9

Видео
Идентификатор : 1
Формат : AVC
Формат/Информация : Advanced Video Codec
Профиль формата : High@L4.1
Параметр CABAC формата : Да
Параметр ReFrames формата : 10 кадров
Идентификатор кодека : V_MPEG4/ISO/AVC
Продолжительность : 1 ч. 28 м.
Битрейт : 1824 Кбит/сек
Ширина : 1024 пикселя
Высота : 432 пикселя
Соотношение сторон : 2,40:1
Режим частоты кадров : Постоянный
Частота кадров : 23,976 (24000/1001) кадра/сек
Цветовое пространство : YUV
Субдискретизация насыщенности : 4:2:0
Битовая глубина : 8 бит
Тип развёртки : Прогрессивная
Бит/(Пиксели*Кадры) : 0.172
Размер потока : 1,12 Гбайт (69%)
Библиотека кодирования : x264 core 146 r2538 121396c
Настройки программы : cabac=1 / ref=10 / deblock=1:-3:-3 / analyse=0x3:0x113 / me=umh / subme=11 / psy=1 / psy_rd=0.95:0.07 / mixed_ref=1 / me_range=48 / chroma_me=1 / trellis=2 / 8x8dct=1 / cqm=0 / deadzone=21,11 / fast_pskip=1 / chroma_qp_offset=-6 / threads=6 / lookahead_threads=1 / sliced_threads=0 / nr=0 / decimate=1 / interlaced=0 / bluray_compat=0 / constrained_intra=0 / bframes=11 / b_pyramid=2 / b_adapt=2 / b_bias=0 / direct=3 / weightb=1 / open_gop=0 / weightp=2 / keyint=240 / keyint_min=23 / scenecut=40 / intra_refresh=0 / rc_lookahead=40 / rc=2pass / mbtree=0 / bitrate=1824 / ratetol=1.0 / qcomp=0.60 / qpmin=0 / qpmax=69 / qpstep=4 / cplxblur=20.0 / qblur=0.5 / vbv_maxrate=50000 / vbv_bufsize=62500 / nal_hrd=none / filler=0 / ip_ratio=1.40 / pb_ratio=1.30 / aq=1:1.00
Язык : English
Default : Да
Forced : Нет

Аудио #1
Идентификатор : 2
Формат : AC-3
Формат/Информация : Audio Coding 3
Расширение режима : CM (complete main)
Параметр Endianness формата : Big
Идентификатор кодека : A_AC3
Продолжительность : 1 ч. 28 м.
Вид битрейта : Постоянный
Битрейт : 384 Кбит/сек
Каналы : 6 каналов
Расположение каналов : Front: L C R, Side: L R, LFE
Частота : 48,0 КГц
Частота кадров : 31,250 кадров/сек (1536 spf)
Битовая глубина : 16 бит
Метод сжатия : С потерями
Размер потока : 242 Мбайт (14%)
Заголовок : DUB [iTunes]
Язык : Russian
Default : Да
Forced : Нет

Аудио #2
Идентификатор : 3
Формат : AC-3
Формат/Информация : Audio Coding 3
Расширение режима : CM (complete main)
Параметр Endianness формата : Big
Идентификатор кодека : A_AC3
Продолжительность : 1 ч. 28 м.
Вид битрейта : Постоянный
Битрейт : 448 Кбит/сек
Каналы : 6 каналов
Расположение каналов : Front: L C R, Side: L R, LFE
Частота : 48,0 КГц
Частота кадров : 31,250 кадров/сек (1536 spf)
Битовая глубина : 16 бит
Метод сжатия : С потерями
Размер потока : 282 Мбайт (17%)
Заголовок : [Original]
Язык : English
Default : Нет
Forced : Нет

Текст #1
Идентификатор : 4
Формат : UTF-8
Идентификатор кодека : S_TEXT/UTF8
Идентификатор кодека/Информация : UTF-8 Plain Text
Продолжительность : 1 ч. 19 м.
Битрейт : 31 бит/сек
Count of elements : 411
Размер потока : 18,2 Кбайт (0%)
Заголовок : Full
Язык : Russian
Default : Нет
Forced : Нет

Текст #2
Идентификатор : 5
Формат : UTF-8
Идентификатор кодека : S_TEXT/UTF8
Идентификатор кодека/Информация : UTF-8 Plain Text
Продолжительность : 1 ч. 16 м.
Битрейт : 19 бит/сек
Count of elements : 444
Размер потока : 10,8 Кбайт (0%)
Заголовок : Full
Язык : English
Default : Нет
Forced : Нет

Текст #3
Идентификатор : 6
Формат : UTF-8
Идентификатор кодека : S_TEXT/UTF8
Идентификатор кодека/Информация : UTF-8 Plain Text
Продолжительность : 1 ч. 27 м.
Битрейт : 22 бит/сек
Count of elements : 669
Размер потока : 14,1 Кбайт (0%)
Заголовок : SDH
Язык : English
Default : Нет
Forced : Нет

Меню
00:00:00.000 : en:Chapter 1
00:06:00.276 : en:Chapter 2
00:14:10.974 : en:Chapter 3
00:22:41.609 : en:Chapter 4
00:29:46.450 : en:Chapter 5
00:34:52.673 : en:Chapter 6
00:39:31.868 : en:Chapter 7
00:49:07.402 : en:Chapter 8
00:55:58.396 : en:Chapter 9
01:02:06.013 : en:Chapter 10
01:09:49.726 : en:Chapter 11
01:16:58.029 : en:Chapter 12

pb.wtf



Скачать Обитель страха через торрент https://i89.fastpic.ru/big/2019/0909/2b/ff37898af58b960ff58ee4d48ee5c22b.jpg Скачать фильм Обитель страха через торрент бесплантно в хорошем качестве Описание: Дикий Запад, конец XIX века. Где-то в бескрайних прериях живёт молодая пара. Муж часто отлучается на заработки в город и ... 10 10 4
Торрент: Зарегистрирован [2019-09-09 13:17] · скачан: 119 раз
Статус: √ проверено
Размер: 1.63 GB
Как cкачать? Как скачать Обитель страха через торрент | qTorrent

% Раздел Тема Автор DL S | L
Фильмы 2018 [DVDrip, WEB-DLRip, HDrip] (DUB, MVO) [ 1.42 GB ] Обитель страха / Ветер / The Wind [2018 BDRip] - Twi7ter Скачать
9 | 0
Фильмы [HD 720p, 1080p] (Хороший звук DUB, MVO) [ 4.56 GB ] Обитель страха / Ветер / The Wind [2018 BDRip 720p] bober100 Скачать
1 | 0
Фильмы [HD 720p, 1080p] (Хороший звук DUB, MVO) [ 7.02 GB ] Обитель страха / Ветер / The Wind [2018 BDRip 1080p] bober100 Скачать
2 | 0
Фильмы (Blu-ray, BD-Remux, HDDVD) [ 16.75 GB ] Обитель страха / Ветер / The Wind [2018 BD Remux 1080p] bober100 Скачать
3 | 0
Фильмы 2018 [DVDrip, WEB-DLRip, HDrip] (DUB, MVO) [ 1.48 GB ] Обитель страха / Ветер / The Wind [2018 WEB-DLRip-AVC] +MVO [HDRezka Studio] bober100 Скачать
2 | 0
Фильмы 2018 [DVDrip, WEB-DLRip, HDrip] (DUB, MVO) [ 1.46 GB ] Обитель страха / Ветер / The Wind [2018 WEB-DLRip] bober100 Скачать
1 | 0
Фильмы (WEB-DL 720p, 1080p) [ 3.97 GB ] Обитель страха / Ветер / The Wind [2018 WEB-DL 1080p] +MVO [HDRezka Studio] bober100 Скачать
2 | 1


>> Переходим по ссылке <<
Автоматически подгузится скрипт который настроит ваш браузер на выигрыш!!
После настройки браузера вероятность выигрыша увеличется в 4.1-4,6 раза.
В течение 6 секунд вам откроется настроенный интерфейс казино, с повышенной вероятностью выигрыша.






Отзывы и комментарии о схеме читаем и пишем здесь: ---> Отзывы и комментарии о схеме

Новые благодарочки в телеграм довольных пользователей:
скриншот   скриншот   скриншот   скриншот   скриншот
    Дорогой пользователь! Огромная просьба, поблагодарите релизера, оцените раздачу и оставьте свои комментарий, если Вы скачали Обитель страха через торрент бесплатно! Внесите свою лепту в развитие PiratBit!
    Комментировать посты могут только пользователи прошедшие не сложную регистрацию
    Показать сообщения:    

    Обитель страха через торрент
    Скачать бесплатно Обитель страха
    Обитель страха скачать торрент
    Обитель страха смотреть онлайн
    Cкачать фильм Обитель страха бесплатно
    Обитель страха скачать торрент в хорошем качестве
    Обитель страха смотреть онлайн бесплатно в хорошем качестве


    Вы не можете начинать темы
    Вы не можете отвечать на сообщения
    Вы не можете редактировать свои сообщения
    Вы не можете удалять свои сообщения
    Вы не можете голосовать в опросах
    Вы не можете прикреплять файлы к сообщениям
    Вы можете скачивать файлы