Ссылка на приватное зеркало всего за 1$. Внимание количество ограничено!!!

OK

1+1

iTunes

мы

OK

1

WEB-DLRip

Джокер

Пифагор

Ведьмак / The Witcher сериал

Лицензия

ПШазам

ОК

Оно 2

iTunes

30
pack

Вам бонус

ВАЖНО

!!Акция!!

Alien_RageХит недели

RePack

Resident Evil 21

ИГРА 18+

pack

RePack

jed

!!Акция!!

Alien_Rage

RePack

fifa19

RePack

Assassins Creed: Odyssey

RePack

NEED FOR SPEED™ PAYBACK

4 сезон

9 сезон

Бесстыжие 9 сезон

Все сериалы

все сериалы на PB.wtf

RePack

FAR CRY 5
  

Гардемарины 3 (Светлана Дружинина) [1992, мелодрама, приключения, история, DVDRip-AVC] - KORSAR pb.wtf

Скачать  

27-10-2019 17:39 Гардемарины 3 Скачать торрент  

Гардемарины 3
Год выхода: 1992
Страна: Россия , Германия
Жанр: Мелодрама, приключения, история
Продолжительность: 01:41:27
Перевод: Не требуется
Субтитры: Нет
Режиссёр: Светлана Дружинина
В ролях: Дмитрий Харатьян, Михаил Мамаев, Александр Домогаров, Людмила Гурченко, Наталья Гундарева, Кристина Орбакайте, Лев Дуров, Евгений Евстигнеев, Юрий Яковлев, Виктор Раков, Барбара Рудник, В. Георгиевский, Алексей Родионов, Александр Кулямин
Описание: Идет семилетняя война, русские солдаты вынуждены сражаться за интересы Франции и Австрии против Пруссии. Гардемарины продолжают самоотверженно служить Родине. Один - в экспедиции, другой - при дворе, а третий послан в Венецию, передать шкатулку с украшением. На самом деле, в шкатулке послание, от которого зависят дальнейшие судьбы Европы и России!

rating

Качество: DVDRip-AVC
Формат: MKV
Видео: MPEG-4 AVC, 720x558@768x558, 2662 Кбит/с, 25.000 fps
Аудио 1: Русский: AC3, 6 ch, 448 Кбит/с
Аудио 2: Русский: AC3, 1 ch, 224 Кбит/с

Релиз от:


  • x264 [info]: frame I:833 Avg QP:17.35 size: 70378
  • x264 [info]: frame P:37894 Avg QP:19.64 size: 28248
  • x264 [info]: frame B:113460 Avg QP:21.41 size: 7903

    ============================================

    Общее
    Уникальный идентификатор : 254435753254370300078284787686685883229 (0xBF6A8B2A2015078E9C0BD1476B493B5D)
    Полное имя : Гардемарины.3.1992.DVDRip-AVC.KORSAR.mkv
    Формат : Matroska
    Версия формата : Version 2
    Размер файла : 2,36 Гбайт
    Продолжительность : 1 ч. 41 м.
    Общий поток : 3336 Кбит/сек
    Дата кодирования : UTC 2017-02-22 00:06:06
    Программа кодирования : mkvmerge v5.8.0 ('No Sleep / Pillow') built on Sep 2 2012 15:37:04
    Библиотека кодирования : libebml v1.2.3 + libmatroska v1.3.0

    Видео
    Идентификатор : 1
    Формат : AVC
    Формат/Информация : Advanced Video Codec
    Профиль формата : High@L4.1
    Параметр CABAC формата : Да
    Параметр ReFrames формата : 14 кадров
    Идентификатор кодека : V_MPEG4/ISO/AVC
    Продолжительность : 1 ч. 41 м.
    Битрейт : 2662 Кбит/сек
    Ширина : 720 пикселей
    Высота : 558 пикселей
    Соотношение сторон : 1,376
    Режим частоты кадров : Постоянный
    Частота кадров : 25,000 кадров/сек
    Цветовое пространство : YUV
    Субдискретизация насыщенности : 4:2:0
    Битовая глубина : 8 бит
    Тип развёртки : Прогрессивная
    Бит/(Пиксели*Кадры) : 0.265
    Размер потока : 1,84 Гбайт (78%)
    Заголовок : Гардемарины.3.1992.DVDRip-AVC.KORSAR
    Библиотека кодирования : x264 core 148 r2744kMod b97ae06
    Настройки программы : cabac=1 / ref=14 / deblock=1:-2:-2 / analyse=0x3:0x133 / me=umh / subme=10 / psy=1 / fade_compensate=0.00 / psy_rd=1.05:0.12 / mixed_ref=1 / me_range=32 / chroma_me=1 / trellis=2 / 8x8dct=1 / cqm=0 / deadzone=21,11 / fast_pskip=0 / chroma_qp_offset=-3 / threads=12 / lookahead_threads=3 / sliced_threads=0 / nr=0 / decimate=0 / interlaced=0 / bluray_compat=0 / constrained_intra=0 / bframes=10 / b_pyramid=2 / b_adapt=2 / b_bias=0 / direct=3 / weightb=1 / open_gop=0 / weightp=2 / keyint=250 / keyint_min=25 / scenecut=40 / intra_refresh=0 / rc=2pass / mbtree=0 / bitrate=2662 / ratetol=1.0 / qcomp=0.63 / qpmin=0 / qpmax=39 / qpstep=4 / cplxblur=20.0 / qblur=0.5 / ip_ratio=1.25 / pb_ratio=1.30 / aq=2:1.00
    Язык : English
    Default : Да
    Forced : Нет
    Цветовой диапазон : Limited
    Основные цвета : BT.601 PAL
    Характеристики трансфера : BT.470 System B, BT.470 System G
    Коэффициенты матрицы : BT.601

    Аудио #1
    Идентификатор : 2
    Формат : AC-3
    Формат/Информация : Audio Coding 3
    Расширение режима : CM
    Параметр Endianness формата : Big
    Идентификатор кодека : A_AC3
    Продолжительность : 1 ч. 41 м.
    Вид битрейта : Постоянный
    Битрейт : 448 Кбит/сек
    Каналы : 6 каналов
    Расположение каналов : Front: L C R, Side: L R, LFE
    Частота : 48,0 КГц
    Частота кадров : 31,250 кадров/сек (1536 spf)
    Битовая глубина : 16 бит
    Метод сжатия : С потерями
    Размер потока : 325 Мбайт (13%)
    Язык : Russian
    Default : Да
    Forced : Нет

    Аудио #2
    Идентификатор : 3
    Формат : AC-3
    Формат/Информация : Audio Coding 3
    Расширение режима : CM
    Параметр Endianness формата : Big
    Идентификатор кодека : A_AC3
    Продолжительность : 1 ч. 41 м.
    Вид битрейта : Постоянный
    Битрейт : 224 Кбит/сек
    Каналы : 1 канал
    Расположение каналов : Front: C
    Частота : 48,0 КГц
    Частота кадров : 31,250 кадров/сек (1536 spf)
    Битовая глубина : 16 бит
    Метод сжатия : С потерями
    Размер потока : 163 Мбайт (7%)
    Язык : Russian
    Default : Нет
    Forced : Нет

    Меню
    00:00:00.000 : ru:Chapter 1
    00:07:44.600 : ru:Chapter 2
    00:13:09.520 : ru:Chapter 3
    00:22:26.480 : ru:Chapter 4
    00:32:45.000 : ru:Chapter 5
    00:44:48.520 : ru:Chapter 6
    00:54:26.480 : ru:Chapter 7
    01:00:51.040 : ru:Chapter 8
    01:10:42.280 : ru:Chapter 9
    01:17:09.960 : ru:Chapter 10
    01:24:01.120 : ru:Chapter 11
    01:31:41.520 : ru:Chapter 12
    01:41:27.000 : ru:Chapter 13
  • pb.wtf



    28-11-2019 20:33  

    Отключить всю рекламу на сайте

      Дорогой пользователь! Огромная просьба, поблагодарите релизера, оцените раздачу и оставьте свои комментарий, если Вы скачали Гардемарины 3 через торрент бесплатно! Внесите свою лепту в развитие PiratBit!
      Комментировать посты могут только пользователи прошедшие не сложную регистрацию
      Показать сообщения:    

      Гардемарины 3 через торрент
      Скачать бесплатно Гардемарины 3
      Гардемарины 3 скачать торрент
      Гардемарины 3 смотреть онлайн
      Cкачать фильм Гардемарины 3 бесплатно
      Гардемарины 3 скачать торрент в хорошем качестве
      Гардемарины 3 смотреть онлайн бесплатно в хорошем качестве


      Вы не можете начинать темы
      Вы не можете отвечать на сообщения
      Вы не можете редактировать свои сообщения
      Вы не можете удалять свои сообщения
      Вы не можете голосовать в опросах
      Вы не можете прикреплять файлы к сообщениям
      Вы можете скачивать файлы