Ссылка на приватное зеркало всего за 1$. Внимание количество ограничено!!!

OK

1+1

iTunes

мы

OK

1

WEB-DLRip

Джокер

Пифагор

Ведьмак / The Witcher сериал

Лицензия

ПШазам

ОК

Оно 2

iTunes

30
pack

Вам бонус

ВАЖНО

!!Акция!!

Alien_RageХит недели

RePack

Resident Evil 21

ИГРА 18+

pack

RePack

jed

RePack

fifa19

RePack

Assassins Creed: Odyssey

RePack

NEED FOR SPEED™ PAYBACK

4 сезон

9 сезон

Бесстыжие 9 сезон

Все сериалы

все сериалы на PB.wtf

RePack

FAR CRY 5
  

Куда ты пропала, Бернадетт? / Where'd You Go, Bernadette (Ричард Линклейтер) [2019, Драма, комедия, детектив, WEB-DL 1080p] DUB (rus, ukr) [iTunes] pb.wtf

Куда ты пропала, Бернадетт? через торрент pb.wtf

Раздают: 4 [ 0 KB/s ]
Размер: 4.46 GB | Добавлен: 2 мес. 4 д. назад | Торрент скачан:152 раза
Скачать  

18-11-2019 20:20 Куда ты пропала, Бернадетт? Скачать торрент  

Куда ты пропала, Бернадетт? / Where'd You Go, Bernadette
Год выпуска: 2019
Страна: США
Студия: Annapurna Pictures, Color Force
Жанр: Драма, комедия, детектив
Продолжительность: 01:44:29
Перевод: Дублированный | iTunes
Субтитры: Русские

Режиссер: Ричард Линклейтер

rating

В ролях: Кейт Бланшетт, Джуди Грир, Кристен Уиг, Тройэн Эвери Беллисарио, Билли Крудап, Лоренс Фишбёрн, Стив Зан, Меган Маллалли, Клаудия Дурмит, Йоуханнес Хёйкьюр Йоуханнессон

Описание: У Бернадетт, очаровательной женщины и талантливого архитектора, есть всё: прекрасный дом, замечательная дочь, успешный и любящий муж. Хоть она и выбивается из «безупречной» компании соседских мамаш, никто не мог представить, что в один прекрасный день Бернадетт просто исчезнет без следа. Она отправляется на поиски себя, пытаясь обрести счастье на краю света.

Качество: WEB-DL 1080p
Формат: MKV

Видео: MPEG-4 AVC, 1920x1038, 5206 Кbit/s, 25 fps
Аудио#1: 48 kHz, AC3, 5.1, 384 Kbps | iTunes | RUS |
Аудио#2: 48 kHz, AAC, 2.0, 126 Kbps | iTunes | UKR |
Аудио#3: 48 kHz, AC3, 5.1, 384 Kbps | Оригинал | ENG |
скриншот  скриншот  скриншот  скриншот  скриншот  

General
Unique ID : 181428194726409040957069901138088613388 (0x887DCC9ECAB50407FC8F86272BFED60C)
Complete name : D:Video111Where.d.You.Go.Bernadette.2019.WEB.DL.1080p.seleZen.mkv
Format : Matroska
Format version : Version 4
File size : 4.46 GiB
Duration : 1 h 44 min
Overall bit rate : 6 103 kb/s
Movie name : Where'd You Go, Bernadette 2019 from селезень
Encoded date : UTC 2019-11-18 19:59:11
Writing application : mkvmerge v40.0.0 ('Old Town Road + Pony') 64-bit
Writing library : libebml v1.3.9 + libmatroska v1.5.2
Cover : Yes
Attachments : cover.jpg

Video
ID : 1
Format : AVC
Format/Info : Advanced Video Codec
Format profile : High@L4
Format settings : CABAC / 4 Ref Frames
Format settings, CABAC : Yes
Format settings, Reference : 4 frames
Codec ID : V_MPEG4/ISO/AVC
Duration : 1 h 44 min
Bit rate : 5 206 kb/s
Width : 1 920 pixels
Height : 1 038 pixels
Display aspect ratio : 1.85:1
Frame rate mode : Constant
Frame rate : 25.000 FPS
Color space : YUV
Chroma subsampling : 4:2:0
Bit depth : 8 bits
Scan type : Progressive
Bits/(Pixel*Frame) : 0.104
Stream size : 3.80 GiB (85%)
Language : English
Default : Yes
Forced : No
Color range : Limited
Color primaries : BT.709
Transfer characteristics : BT.709
Matrix coefficients : BT.709

Audio #1
ID : 2
Format : AC-3
Format/Info : Audio Coding 3
Commercial name : Dolby Digital
Codec ID : A_AC3
Duration : 1 h 44 min
Bit rate mode : Constant
Bit rate : 384 kb/s
Channel(s) : 6 channels
Channel layout : L R C LFE Ls Rs
Sampling rate : 48.0 kHz
Frame rate : 31.250 FPS (1536 SPF)
Bit depth : 16 bits
Compression mode : Lossy
Stream size : 287 MiB (6%)
Title : iTunes
Language : Russian
Service kind : Complete Main
Default : Yes
Forced : Yes

Audio #2
ID : 3
Format : AAC LC
Format/Info : Advanced Audio Codec Low Complexity
Codec ID : A_AAC-2
Duration : 1 h 44 min
Bit rate : 126 kb/s
Channel(s) : 2 channels
Channel layout : L R
Sampling rate : 48.0 kHz
Frame rate : 46.875 FPS (1024 SPF)
Compression mode : Lossy
Stream size : 93.9 MiB (2%)
Title : iTunes
Language : Ukrainian
Default : No
Forced : No

Audio #3
ID : 4
Format : AC-3
Format/Info : Audio Coding 3
Commercial name : Dolby Digital
Codec ID : A_AC3
Duration : 1 h 44 min
Bit rate mode : Constant
Bit rate : 384 kb/s
Channel(s) : 6 channels
Channel layout : L R C LFE Ls Rs
Sampling rate : 48.0 kHz
Frame rate : 31.250 FPS (1536 SPF)
Bit depth : 16 bits
Compression mode : Lossy
Stream size : 287 MiB (6%)
Title : Original
Language : English
Service kind : Complete Main
Default : No
Forced : No

Text
ID : 5
Format : UTF-8
Codec ID : S_TEXT/UTF8
Codec ID/Info : UTF-8 Plain Text
Duration : 1 h 43 min
Bit rate : 129 b/s
Count of elements : 1509
Stream size : 98.4 KiB (0%)
Title : Full
Language : Russian
Default : No
Forced : No

Menu
00:00:00.000 : en:Глава 1
00:01:59.040 : en:Глава 2
00:08:41.040 : en:Глава 3
00:15:01.400 : en:Глава 4
00:24:18.000 : en:Глава 5
00:29:22.760 : en:Глава 6
00:41:22.000 : en:Глава 7
00:50:23.600 : en:Глава 8
01:05:17.200 : en:Глава 9
01:11:28.280 : en:Глава 10
01:17:06.200 : en:Глава 11
01:26:51.080 : en:Глава 12
01:35:48.960 : en:Глава 13

pb.wtf



Скачать Куда ты пропала, Бернадетт? через торрент https://img15.lostpic.net/2019/11/18/381c1da5589f715f4bc8dfc6db69896d.jpg Скачать фильм Куда ты пропала, Бернадетт? через торрент бесплантно в хорошем качестве Описание: У Бернадетт, очаровательной женщины и талантливого архитектора, есть всё: прекрасный дом, замечательная дочь, успешный и любящий ... 10 10 5
Торрент: Зарегистрирован [2019-11-18 20:20] · скачан: 152 раз
Статус: √ проверено
Размер: 4.46 GB
Как cкачать? Как скачать Куда ты пропала, Бернадетт? через торрент | qTorrent

28-11-2019 20:33  

Отключить всю рекламу на сайте

    Дорогой пользователь! Огромная просьба, поблагодарите релизера, оцените раздачу и оставьте свои комментарий, если Вы скачали Куда ты пропала, Бернадетт? через торрент бесплатно! Внесите свою лепту в развитие PiratBit!
    Комментировать посты могут только пользователи прошедшие не сложную регистрацию
    Показать сообщения:    

    Куда ты пропала, Бернадетт? через торрент
    Скачать бесплатно Куда ты пропала, Бернадетт?
    Куда ты пропала, Бернадетт? скачать торрент
    Куда ты пропала, Бернадетт? смотреть онлайн
    Cкачать фильм Куда ты пропала, Бернадетт? бесплатно
    Куда ты пропала, Бернадетт? скачать торрент в хорошем качестве
    Куда ты пропала, Бернадетт? смотреть онлайн бесплатно в хорошем качестве


    Вы не можете начинать темы
    Вы не можете отвечать на сообщения
    Вы не можете редактировать свои сообщения
    Вы не можете удалять свои сообщения
    Вы не можете голосовать в опросах
    Вы не можете прикреплять файлы к сообщениям
    Вы можете скачивать файлы