Всегда рабочее зеркало без VPN и Proxy просто перед .vidak.icu напиши любое слово или цифру, Пример http://9qii.vidak.icu

MVO

Лицензия

1 сезон

1

1 сезон

iTunes

1 сезон

13

1 сезон

Deluxe

pack

Рекомендуем

Пиратка

30

ВАЖНО

RePack

MK11

RePack

jed

RePack

fifa19

RePack

RDR2

RePack

NEED FOR SPEED™ PAYBACK

Кинопоиск HD

6 сезон

 Острые козырьки 6 сезон

Все сериалы

все сериалы на PB.wtf

RePack

FAR CRY 5
  
Magnet ссылка

Сексуальные выходки / Sexcapades (Henri Pachard) [1983 г., Classic, Comedy, DVDRip] pb.wtf

Сексуальные выходки через торрент pb.wtf

Размер: 1.31 GB | Добавлен: 2 года 7 мес. назад | Торрент скачан:159 раз
Смотреть онлайн Сексуальные выходки | Скачать    Ребята, помогите собрать деньги на оплату серверов!!!

01-12-2019 13:04 Сексуальные выходки Скачать торрент  

Сексуальные выходки / Sexcapades
Год выпуска: 1983

Страна: США

Жанр: Classic, Comedy

Продолжительность: 01:23:19

Студия: Bero Consultants

Режиссер: Henri Pachard

rating

В ролях: Sharon Mitchell, Eric Edwards, Lee Carroll, Tiffany Clark, Sharon Kane, Joanna Storm, Ashley Welles, Alan Adrian, Michael Bruce, George Payne, Mai Lin, Bernie Curtis, McGurk Pachard, Jack Rivers, Candida Royalle

Описание: Bankrupt movie director accepts to direct a porn, against his wife’s will. But he wants it to be the ultimate adult fim
Качество: DVDRip
Формат: MP4
Видео: 640x464, AVC, 2054 Кбит/сек
Аудио: Английский, AC-3, 2 ch, 192 Кбит/сек
Видео
Идентификатор : 1
Формат : AVC
Формат/Информация : Advanced Video Codec
Профиль формата : Main@L3
Настройки формата : CABAC / 1 Ref Frames
Параметр CABAC формата : Да
Параметр RefFrames формата : 1 кадр
Параметр GOP формата : M=1, N=25
Идентификатор кодека : avc1
Идентификатор кодека/Информация : Advanced Video Coding
Продолжительность : 1 ч. 23 м.
Вид битрейта : Постоянный
Битрейт : 2054 Кбит/сек
Ширина : 640 пикселей
Высота : 464 пикселя
Соотношение сторон : 1,379
Режим частоты кадров : Постоянный
Частота кадров : 29,970 (30000/1001) кадров/сек
Цветовое пространство : YUV
Субдискретизация насыщенности : 4:2:0
Битовая глубина : 8 бит
Тип развёртки : Прогрессивная
Бит/(Пиксели*Кадры) : 0.231
Размер потока : 1,19 Гбайт (91%)
Дата кодирования : UTC 2016-01-20 16:00:40
Дата пометки : UTC 2016-01-20 16:00:40
Codec configuration box : avcC

Аудио
Идентификатор : 2
Формат : AC-3
Формат/Информация : Audio Coding 3
Коммерческое название : Dolby Digital
Идентификатор кодека : ac-3
Продолжительность : 1 ч. 23 м.
Вид битрейта : Постоянный
Битрейт : 192 Кбит/сек
Каналы : 2 канала
ChannelLayout : L R
Частота : 48,0 КГц
Частота кадров : 31,250 кадров/сек (1536 SPF)
Битовая глубина : 16 бит
Метод сжатия : С потерями
Размер потока : 114 Мбайт (9%)
ServiceKind/String : Complete Main
Default : Да
AlternateGroup/String : 1
Дата кодирования : UTC 2016-01-20 16:00:40
Дата пометки : UTC 2016-01-20 16:00:40

скриншот  

pb.wtf



pack Скачать Сексуальные выходки через торрент https://pic1.kartinco.top/images/12/fghgj.jpg Скачать, смотреть онлайн Сексуальные выходки бесплантно в хорошем качестве Описание: Bankrupt movie director accepts to direct a porn, against his wife’s will. But he wants it to be the ultimate adult ... 6.3 10 3
Торрент: Зарегистрирован [2019-12-01 13:04] · скачан: 159 раз
Статус: √ проверено
Размер: 1.31 GB
Как cкачать? Как скачать Сексуальные выходки через торрент | UTorrent

28-11-2019 20:33  

Отключить всю рекламу на сайте

    Дорогой пользователь! Огромная просьба, поблагодарите релизера, оцените раздачу и оставьте свои комментарий, если Вы скачали Сексуальные выходки через торрент бесплатно!
    Комментировать посты могут только пользователи прошедшие не сложную регистрацию
    Показать сообщения:    

    Сексуальные выходки через торрент
    Скачать бесплатно Сексуальные выходки
    Сексуальные выходки скачать торрент
    Сексуальные выходки смотреть онлайн
    Cкачать фильм Сексуальные выходки бесплатно
    Сексуальные выходки скачать торрент в хорошем качестве
    Сексуальные выходки смотреть онлайн бесплатно в хорошем качестве


    Вы не можете начинать темы
    Вы не можете отвечать на сообщения
    Вы не можете редактировать свои сообщения
    Вы не можете удалять свои сообщения
    Вы не можете голосовать в опросах
    Вы не можете прикреплять файлы к сообщениям
    Вы можете скачивать файлы