Ссылка на приватное зеркало нашего сайта всего за 1$. Внимание количество ограничено!!!

2 сезон

iTunes

1 сезон

1

2 сезон

2 сезон

iTunes

1 сезон

RePack

30

Новинка

ВАЖНО

ИГРА 18+

pack

RePack

MK11
pack

Забери бонус

RePack

jed

!!Акция!!

Alien_Rage

RePack

fifa19

RePack

Assassins Creed: Odyssey

RePack

NEED FOR SPEED™ PAYBACK

4 сезон

9 сезон

Бесстыжие 9 сезон

Все сериалы

все сериалы на PB.wtf

RePack

FAR CRY 5
  

Где ты, моя Зульфия? (Али Хамраев) [1964, СССР, комедия, музыка, SATRip от AVP Studio] pb.wtf

Где ты, моя Зульфия? через торрент pb.wtf

Размер: 744 MB | Добавлен: 11 мес. назад | Торрент скачан:4 раза
Скачать  

13-12-2019 10:40 Где ты, моя Зульфия? Скачать торрент  

Где ты, моя Зульфия?
Страна: СССР
Производство: Узбекфильм

Жанр: комедия, музыка
Год выпуска: 1964
Продолжительность: 01:07:18

Перевод: Не требуется
Cубтитры: нет
Оригинальная аудиодорожка: русский

Режиссер: Али Хамраев

В ролях:
Саиб Ходжаев, Бахтиёр Ихтияров, Шукур Бурханов, Алим Ходжаев, Раззак Хамраев, Рахим Пирмухамедов, Анахон Таджибаева, Гани Агзамов, Турсуной Джафарова, Рано Хамраева, Хамза Умаров, Хабиб Нариманов, Н. Ишмухамедов, Кудрат Ходжаев, М. Арифджанова, Уткур Ходжаев, С. Икрамов...
Об актёрах подробней

Описание:
Юноша Бахтияр влюбляется в девушку, которую он увидел на экране телевизора. Он решил ее найти. О том, как в поисках Зульфии Бахтияр вместе с отцом исколесил много дорог по республике, увидели много различных людей, пережили много смешных и грустных приключений, но Зульфии они так и не нашли. Когда же они вернулись в Ташкент, там, в новом доме, куда переехала семья Бахтияра, он совершенно случайно встретил Зульфию, которую разыскивал по всему Узбекистану.

Исходник: DVB
Качество видео: SATRip
Формат видео: AVI

Видео: 704x528 (4:3), 25,000 кадров/сек, XviD ~ 1341 kbps avg, 0.144 bit/pixel
Аудио: 48 kHz, Dolby Digital AC3 2.0, 192 kbps

Раздача от:
Общее
Полное имя : Gde.ty,moya.Zulfiya.1964.SATRip_[New-team]_by_AVP_Studio.avi
Формат : AVI
Формат/Информация : Audio Video Interleave
Размер файла : 744 Мбайт
Продолжительность : 1 ч. 7 м.
Общий поток : 1545 Кбит/сек

Видео
Идентификатор : 0
Формат : MPEG-4 Visual
Профиль формата : Advanced Simple@L5
Настройки формата : BVOP1 / Custom Matrix
Параметр BVOP формата : 1
Параметр QPel формата : Нет
Параметр GMC формата : Без точки перехода
Параметр матрицы формата : Выборочная
Идентификатор кодека : XVID
Идентификатор кодека/Подсказка : XviD
Продолжительность : 1 ч. 7 м.
Битрейт : 1341 Кбит/сек
Ширина : 704 пикселя
Высота : 528 пикселей
Соотношение сторон : 4:3
Частота кадров : 25,000 кадров/сек
Цветовое пространство : YUV
Субдискретизация насыщенности : 4:2:0
Битовая глубина : 8 бит
Тип развёртки : Прогрессивная
Метод сжатия : С потерями
Бит/(Пиксели*Кадры) : 0.144
Размер потока : 646 Мбайт (87%)
Библиотека кодирования : XviD 73

Аудио
Идентификатор : 1
Формат : AC-3
Формат/Информация : Audio Coding 3
Коммерческое название : Dolby Digital
Идентификатор кодека : 2000
Продолжительность : 1 ч. 7 м.
Вид битрейта : Постоянный
Битрейт : 192 Кбит/сек
Каналы : 2 канала
ChannelLayout : L R
Частота : 48,0 КГц
Частота кадров : 31,250 кадров/сек (1536 SPF)
Битовая глубина : 16 бит
Метод сжатия : С потерями
Размер потока : 92,4 Мбайт (12%)
Выравнивание : Соединение по промежуткам
Продолжительность промежутка : 32 мс
pb.wtf



Скачать Где ты, моя Зульфия? через торрент http://d.radikal.ru/d19/1912/95/921efefee183.png Скачать фильм Где ты, моя Зульфия? через торрент бесплантно в хорошем качестве Описание:Юноша Бахтияр влюбляется в девушку, которую он увидел на экране телевизора. Он решил ее найти. О том, как в поисках Зульфии ... 5 10 1
Торрент: Зарегистрирован [2019-12-13 10:40] · скачан: 4 раз
Статус: √ проверено
Размер: 744 MB
Как cкачать? Как скачать Где ты, моя Зульфия? через торрент | qTorrent

28-11-2019 20:33  

Отключить всю рекламу на сайте

    Дорогой пользователь! Огромная просьба, поблагодарите релизера, оцените раздачу и оставьте свои комментарий, если Вы скачали Где ты, моя Зульфия? через торрент бесплатно! Внесите свою лепту в развитие PiratBit!
    Комментировать посты могут только пользователи прошедшие не сложную регистрацию
    Показать сообщения:    

    Где ты, моя Зульфия? через торрент
    Скачать бесплатно Где ты, моя Зульфия?
    Где ты, моя Зульфия? скачать торрент
    Где ты, моя Зульфия? смотреть онлайн
    Cкачать фильм Где ты, моя Зульфия? бесплатно
    Где ты, моя Зульфия? скачать торрент в хорошем качестве
    Где ты, моя Зульфия? смотреть онлайн бесплатно в хорошем качестве


    Вы не можете начинать темы
    Вы не можете отвечать на сообщения
    Вы не можете редактировать свои сообщения
    Вы не можете удалять свои сообщения
    Вы не можете голосовать в опросах
    Вы не можете прикреплять файлы к сообщениям
    Вы можете скачивать файлы