Всегда рабочее зеркало без VPN и Proxy просто перед .vidak.icu напиши любое слово или цифру, Пример http://hquw.vidak.icu

MVO

MVO

1 сезон

1

1 сезон

iTunes

1 сезон

13

1 сезон

Deluxe

pack

Рекомендуем

Repack

30

ВАЖНО

RePack

MK11

RePack

jed

RePack

fifa19

RePack

RDR2

RePack

NEED FOR SPEED™ PAYBACK

Кинопоиск HD

6 сезон

 Острые козырьки 6 сезон

Все сериалы

все сериалы на PB.wtf

RePack

FAR CRY 5
  
Magnet ссылка

Гранд Тур / The Grand Tour / Сезон: 4 / Серии: 1-4 из 4 (Фил Чурчуорд, Брайан Клейн, Кит Линч Робинсон) [2019, Авто-шоу, WEB-DLRip] MVO [AlexFilm] pb.wtf

Гранд Тур через торрент pb.wtf

Раздают: 2 [ 419 KB/s ]
Размер: 6.63 GB | Добавлен: 7 мес. назад | Торрент скачан:32 раза
Смотреть онлайн Гранд Тур | Скачать    Ребята, помогите собрать деньги на оплату серверов!!!

14-12-2019 15:05 Гранд Тур Скачать торрент  

Гранд Тур / The Grand Tour Год выхода: 2019
Страна: Великобритания
Жанр: Автопередача
Продолжительность: ~01:10:00 серия
Перевод: Профессиональное многоголосое закадровое | AlexFilm
Субтитры: Русские |Amazon|, английские (SDH)

В ролях: Фил Чурчуорд, Брайан Клейн, Кит Линч Робинсон

Описание: "Гранд Тур" — это новое автомобильное телешоу, созданное бывшими ведущими Top Gear — Джереми Кларксоном, Ричардом Хаммондом и Джеймсом Мэйем. Зрителей ждут автомобильные обзоры, приключения по всему миру, встречи со знаменитостями и юмор, который является непременным атрибутом каждого выпуска.

rating

Качество видео: WEB-DLRip
Формат: AVI

Видео: XviD, 720x400, 23,976 кадров/сек, ~2000 Кбит/сек
Аудио Rus: AC3, 48 kHz, 3/2 (L,C,R,l,r) + LFE ch, 384 Кбит/сек
Аудио Eng: AC3, 48 kHz, 3/2 (L,C,R,l,r) + LFE ch, 384 Кбит/сек
Релиз:

Перевод: Константин Кривоногов
Монтаж и сведение звука: Константин Федосеев
Роли озвучивали:

Екатерина Муравицкая
Андрей Стакионис
Константин Погодаев
Дмитрий Лунёв
Михаил Суслов
Кирилл Патрино


скриншот  скриншот  скриншот  скриншот  
Общее
Полное имя : D:\The Grand Tour (Season 4) WEB-DLRip\The.Grand.Tour.S04E01.WEB-DLRip.RGzsRutracker.[Wentworth_Miller].avi
Формат : AVI
Формат/Информация : Audio Video Interleave
Размер файла : 1,78 Гбайт
Продолжительность : 1 ч. 31 м.
Общий поток : 2782 Кбит/сек
Название фильма : The Grand Tour 4x01 @ EniaHD
Программа кодирования : VirtualDubMod 1.5.10.3 | www.virtualdub-fr.org || (build 2550/release)
Библиотека кодирования : VirtualDubMod build 2550/release

Видео
Идентификатор : 0
Формат : MPEG-4 Visual
Профиль формата : Advanced [email protected]
Параметр BVOP формата : 1
Параметр QPel формата : Нет
Параметр GMC формата : Без точки перехода
Параметр матрицы формата : Default (MPEG)
Идентификатор кодека : XVID
Идентификатор кодека/Подсказка : XviD
Продолжительность : 1 ч. 31 м.
Битрейт : 1993 Кбит/сек
Ширина : 720 пикселей
Высота : 400 пикселей
Соотношение сторон : 16:9
Частота кадров : 25,000 кадров/сек
Цветовое пространство : YUV
Субдискретизация насыщенности : 4:2:0
Битовая глубина : 8 бит
Тип развёртки : Прогрессивная
Метод сжатия : С потерями
Бит/(Пиксели*Кадры) : 0.263
Размер потока : 1,21 Гбайт (68%)
Библиотека кодирования : XviD 67

Аудио #1
Идентификатор : 1
Формат : AC-3
Формат/Информация : Audio Coding 3
Расширение режима : CM (complete main)
Параметр Endianness формата : Big
Идентификатор кодека : 2000
Продолжительность : 1 ч. 31 м.
Вид битрейта : Постоянный
Битрейт : 384 Кбит/сек
Каналы : 6 каналов
Расположение каналов : Front: L C R, Side: L R, LFE
Частота : 48,0 КГц
Частота кадров : 31,250 кадров/сек (1536 spf)
Метод сжатия : С потерями
Размер потока : 252 Мбайт (14%)
Выравнивание : Разделение по промежуткам

Аудио #2
Идентификатор : 2
Формат : AC-3
Формат/Информация : Audio Coding 3
Расширение режима : CM (complete main)
Параметр Endianness формата : Big
Идентификатор кодека : 2000
Продолжительность : 1 ч. 31 м.
Вид битрейта : Постоянный
Битрейт : 384 Кбит/сек
Каналы : 6 каналов
Расположение каналов : Front: L C R, Side: L R, LFE
Частота : 48,0 КГц
Частота кадров : 31,250 кадров/сек (1536 spf)
Метод сжатия : С потерями
Размер потока : 252 Мбайт (14%)
Выравнивание : Разделение по промежуткам
Внимание! Раздача ведётся путём добавления новых серий; при каждом добавлении создаётся новый торрент. Чтобы начать докачку новой серии, пользователям необходимо сделать следующее:
(1) остановить скачивание,
(2) удалить старый торрент у себя из клиента (старые серии удалять не надо),
(3) скачать новый торрент и запустить его у себя в клиенте вместо старого, при этом указать клиенту путь в старую папку куда и должно происходить скачивание новых серий.
Ваш клиент при этом должен произвести хеширование (проверку) старой папки (если не производит сам - помогите ему сделать это), и будет докачивать только те серии которых у вас ещё нет. Старые серии при этом не удаляются, а продолжают раздаваться!
Eсли вы уже удалили старые серии, то предотвратить повторную закачку старых серий можно, отжав галочку в соответствующих местах при запуске нового торрента. По возможности, желательно не удалять старые серии как можно дольше чтобы релизёр не столько продолжал раздавать старые серии, а смог сконцентрироваться на новых.
pb.wtf



Скачать Гранд Тур через торрент https://i3.imageban.ru/out/2019/01/18/4ac98f3b20586e1ea38abb4b97794551.png Скачать, смотреть онлайн Гранд Тур бесплантно в хорошем качестве Описание: "Гранд Тур" — это новое автомобильное телешоу, созданное бывшими ведущими Top Gear — Джереми Кларксоном, Ричардом Хаммондом и ... 10 10 7
Торрент: Зарегистрирован [2021-12-20 02:51] · скачан: 32 раз
Статус: √ проверено
Размер: 6.63 GB
Как cкачать? Как скачать Гранд Тур через торрент | UTorrent

% Раздел Тема Автор DL S | L
Автоспорт [ 12.69 GB ] Гранд Тур / The Grand Tour / Сезон: 4 / Серии: 1-4 из 4 [2019 Авто-шоу WEB-DL 720p] MVO [AlexFilm] bober100 Скачать
1 | 0
Автоспорт [ 25.22 GB ] Гранд Тур / The Grand Tour / Сезон: 4 / Серии: 1-4 из 4 [2019 Авто-шоу WEB-DL 1080p] 2xMVO [AlexFilm NewStudio] bober100 Скачать
3 | 0
Автоспорт [ 48.29 GB ] Гранд Тур / The Grand Tour / Сезон: 4 / Серии: 1-2 из 14 [2019 Авто-шоу WEBRip 2160p] MVO [AlexFilm] bober100 Скачать
1 | 0
Автоспорт [ 4.38 GB ] Гранд Тур / The Grand Tour / Сезон: 4 / Серии: 1- из 14 [2019 Авто-шоу WEB-DL 720p] MVO [NewStudio] bober100 Скачать
1 | 0
Автоспорт [ 17.75 GB ] Гранд Тур / The Grand Tour / Сезон 4 / Серии 1-3 из 10 [2019-2020. Авто-шоу WEB-DL 1080p] [MVO] killermax2013 Скачать
1 | 0

28-11-2019 20:33  

Отключить вcю реклaмy на сайте

    Дорогой пользователь! Огромная просьба, поблагодарите релизера, оцените раздачу и оставьте свои комментарий, если Вы скачали Гранд Тур через торрент бесплатно!
    Комментировать посты могут только пользователи прошедшие не сложную регистрацию
    Показать сообщения:    

    Гранд Тур через торрент
    Скачать бесплатно Гранд Тур
    Гранд Тур скачать торрент
    Гранд Тур смотреть онлайн
    Cкачать фильм Гранд Тур бесплатно
    Гранд Тур скачать торрент в хорошем качестве
    Гранд Тур смотреть онлайн бесплатно в хорошем качестве


    Вы не можете начинать темы
    Вы не можете отвечать на сообщения
    Вы не можете редактировать свои сообщения
    Вы не можете удалять свои сообщения
    Вы не можете голосовать в опросах
    Вы не можете прикреплять файлы к сообщениям
    Вы можете скачивать файлы