Всегда рабочее зеркало без VPN и Proxy просто перед .vidak.icu напиши любое слово или цифру, Пример http://72hw.vidak.icu

MVO

MVO

1 сезон

1

1 сезон

iTunes

1 сезон

13

1 сезон

Deluxe

pack

Рекомендуем

Repack

30

ВАЖНО

RePack

MK11

RePack

jed

RePack

fifa19

RePack

RDR2

RePack

NEED FOR SPEED™ PAYBACK

Кинопоиск HD

6 сезон

 Острые козырьки 6 сезон

Все сериалы

все сериалы на PB.wtf

RePack

FAR CRY 5
  
Magnet ссылка

Секс фантазии Рене Бонд / Rene Bond's Sex Fantasies (Frank Spokeman) [1971 г., Classic, WEB-DLRip] pb.wtf

Секс фантазии Рене Бонд через торрент pb.wtf

Раздают: 1 [ 0 KB/s ]
Размер: 2.28 GB | Добавлен: 2 года 5 мес. назад | Торрент скачан:157 раз
Смотреть онлайн Секс фантазии Рене Бонд | Скачать    Ребята, помогите собрать деньги на оплату серверов!!!

20-02-2020 07:30 Секс фантазии Рене Бонд Скачать торрент  

Секс фантазии Рене Бонд / Rene Bond's Sex Fantasies
Год выпуска: 1971

Страна: США

Жанр: Classic

Продолжительность: 01:06:45

Режиссер: Frank Spokeman

В ролях:
Rene Bond ... Oral Fantasist (uncredited)
Dick Burns ... Guy with Champagne / Cole (uncredited)
Suzanne Fields ... Brunette in Fantasy #4 (uncredited)
Ric Lutze ... Man in Fantasy #5 (uncredited)
Carmen Olivera ... Skye (uncredited)

Описание: Rene Bond stars in this classic film about the fantasies of today's youth. She captures the art of seduction in every erotic detail and her manipulations with the male form earned her the title of "The Queen of Porn." The movie is one of the greatest collections of erotic scenes ever filmed, leaving virtually nothing for the imagination. After several teens are asked about their most explicit dreams and desires, they are allowed to experience them. Filled with many sweet and innocent lovelies, the adventures of the "now" generation is definitely for the young at heart
Качество: WEB-DLRip
Формат: MKV
Видео: 1280x720, AVC, 4749 Кбит/сек
Аудио: Английский, AAC, 1 ch, 128 Кбит/сек
Видео
Идентификатор : 1
Формат : AVC
Формат/Информация : Advanced Video Codec
Профиль формата : [email protected]
Настройки формата : CABAC / 4 Ref Frames
Параметр CABAC формата : Да
Параметр RefFrames формата : 4 кадра
Параметр GOP формата : M=3, N=24
Идентификатор кодека : avc1
Идентификатор кодека/Информация : Advanced Video Coding
Продолжительность : 1 ч. 6 м.
Битрейт : 4749 Кбит/сек
Максимальный битрейт : 8778 Кбит/сек
Ширина : 1280 пикселей
Высота : 720 пикселей
Соотношение сторон : 16:9
Режим частоты кадров : Постоянный
Частота кадров : 23,976 (24000/1001) кадра/сек
Цветовое пространство : YUV
Субдискретизация насыщенности : 4:2:0
Битовая глубина : 8 бит
Тип развёртки : Прогрессивная
Бит/(Пиксели*Кадры) : 0.215
Размер потока : 2,21 Гбайт (97%)
Библиотека кодирования : Zencoder Video Encoding System
Дата кодирования : UTC 2016-03-29 19:53:15
Дата пометки : UTC 2016-03-29 20:09:25
Цветовой диапазон : Limited
Основные цвета : BT.709
Характеристики трансфера : BT.709
Коэффициенты матрицы : BT.709
Codec configuration box : avcC

Аудио
Идентификатор : 2
Формат : AAC LC
Формат/Информация : Advanced Audio Codec Low Complexity
Идентификатор кодека : mp4a-40-2
Продолжительность : 1 ч. 6 м.
Вид битрейта : Переменный
Битрейт : 128 Кбит/сек
Максимальный битрейт : 139 Кбит/сек
Каналы : 1 канал
ChannelLayout : C
Частота : 48,0 КГц
Частота кадров : 46,875 кадров/сек (1024 SPF)
Метод сжатия : С потерями
Размер потока : 61,0 Мбайт (3%)
Дата кодирования : UTC 2016-03-29 19:37:47
Дата пометки : UTC 2016-03-29 20:09:25

скриншот  

pb.wtf



pack Скачать Секс фантазии Рене Бонд через торрент https://pic1.kartinco.top/images/12/lo6hv.jpg Скачать, смотреть онлайн Секс фантазии Рене Бонд бесплантно в хорошем качестве Описание: Rene Bond stars in this classic film about the fantasies of today's youth. She captures the art of seduction in every erotic ... 8.7 10 6
Info! Серебряная раздача, засчитывается только 50% скачанного.
Торрент: Зарегистрирован [2020-02-20 07:30] · скачан: 157 раз
Статус: √ проверено
Размер: 2.28 GB
Как cкачать? Как скачать Секс фантазии Рене Бонд через торрент | UTorrent

28-11-2019 20:33  

Отключить вcю реклaмy на сайте

    Дорогой пользователь! Огромная просьба, поблагодарите релизера, оцените раздачу и оставьте свои комментарий, если Вы скачали Секс фантазии Рене Бонд через торрент бесплатно!
    Комментировать посты могут только пользователи прошедшие не сложную регистрацию
    Показать сообщения:    

    Секс фантазии Рене Бонд через торрент
    Скачать бесплатно Секс фантазии Рене Бонд
    Секс фантазии Рене Бонд скачать торрент
    Секс фантазии Рене Бонд смотреть онлайн
    Cкачать фильм Секс фантазии Рене Бонд бесплатно
    Секс фантазии Рене Бонд скачать торрент в хорошем качестве
    Секс фантазии Рене Бонд смотреть онлайн бесплатно в хорошем качестве


    Вы не можете начинать темы
    Вы не можете отвечать на сообщения
    Вы не можете редактировать свои сообщения
    Вы не можете удалять свои сообщения
    Вы не можете голосовать в опросах
    Вы не можете прикреплять файлы к сообщениям
    Вы можете скачивать файлы