Всегда рабочее зеркало без VPN и Proxy просто перед .vidak.icu напиши любое слово или цифру, Пример http://3ww7.vidak.icu

MVO

MVO

1 сезон

1

1 сезон

iTunes

1 сезон

13

1 сезон

Deluxe

pack

Рекомендуем

Repack

30

ВАЖНО

RePack

MK11

RePack

jed

RePack

fifa19

RePack

RDR2

RePack

NEED FOR SPEED™ PAYBACK

Кинопоиск HD

6 сезон

 Острые козырьки 6 сезон

Все сериалы

все сериалы на PB.wtf

RePack

FAR CRY 5
  
Magnet ссылка

Шерлик Холмс / Sherlick Holmes (Victor Milt) [1975 г., Adult, WEB-DLRip] pb.wtf

Шерлик Холмс через торрент pb.wtf

Размер: 1.6 GB | Добавлен: 2 года 5 мес. назад | Торрент скачан:148 раз
Смотреть онлайн Шерлик Холмс | Скачать    Ребята, помогите собрать деньги на оплату серверов!!!

25-02-2020 21:07 Шерлик Холмс Скачать торрент  

Шерлик Холмс / Sherlick Holmes
Год выпуска: 1975

Страна: США

Жанр: Adult

Продолжительность: 01:15:00

Режиссер: Victor Milt

rating

В ролях:
Maureen Anderson ... Maud
Bree Anthony ... Prostitute (as Sue Rowan)
Bobby Astyr ... Pimp
Zebedy Colt ... Watson
Elvira ... Madam at Massage Parlor (as Elvera)
Groovey ... Street Hustler
Candy Love
Harry Reems ... Sherlick Holmes
Annie Sprinkle ... (as Annie Sprinkles) (credit only)
Cheryl White ... Candy

Описание: Lascivious detective Sherlick Holmes and his equally randy partner Dr. Watson discover a time machine that transports them to New York City in the swinging 1970's. The duo encounter a pimp whose ire Holmes rises after Holmes proceeds to seduce said pimp's stable of hookers.
Качество: WEB-DLRip
Формат: MKV
Видео кодек: AVC
Аудио кодек: AC3
Видео: 1280x720, MPEG-4 AVC, 2802 Кбит/сек
Аудио: Английский, AC3, 1 ch, 192 Кбит/сек
Видео
Идентификатор : 1
Формат : AVC
Формат/Информация : Advanced Video Codec
Профиль формата : [email protected]
Настройки формата : CABAC / 9 Ref Frames
Параметр CABAC формата : Да
Параметр RefFrames формата : 9 кадров
Идентификатор кодека : V_MPEG4/ISO/AVC
Продолжительность : 1 ч. 14 м.
Битрейт : 2802 Кбит/сек
Ширина : 1280 пикселей
Высота : 720 пикселей
Соотношение сторон : 16:9
Режим частоты кадров : Постоянный
Частота кадров : 23,976 (24000/1001) кадра/сек
Цветовое пространство : YUV
Субдискретизация насыщенности : 4:2:0
Битовая глубина : 8 бит
Тип развёртки : Прогрессивная
Бит/(Пиксели*Кадры) : 0.127
Размер потока : 1,47 Гбайт (92%)
Библиотека кодирования : x264 core 148 r2708 86b7198
Настройки программы : cabac=1 / ref=9 / deblock=1:-1:-1 / analyse=0x1:0x131 / me=tesa / subme=11 / psy=1 / psy_rd=1.00:0.15 / mixed_ref=1 / me_range=24 / chroma_me=1 / trellis=2 / 8x8dct=0 / cqm=0 / deadzone=21,11 / fast_pskip=0 / chroma_qp_offset=-3 / threads=22 / lookahead_threads=5 / sliced_threads=0 / nr=0 / decimate=1 / interlaced=0 / bluray_compat=0 / constrained_intra=0 / bframes=16 / b_pyramid=2 / b_adapt=2 / b_bias=0 / direct=3 / weightb=1 / open_gop=0 / weightp=2 / keyint=240 / keyint_min=24 / scenecut=40 / intra_refresh=0 / rc_lookahead=60 / rc=crf / mbtree=1 / crf=23.0 / qcomp=0.60 / qpmin=0 / qpmax=69 / qpstep=4 / vbv_maxrate=20000 / vbv_bufsize=25000 / crf_max=0.0 / nal_hrd=none / filler=0 / ip_ratio=1.40 / aq=1:1.00
Default : Да
Forced : Нет
Цветовой диапазон : Limited
Основные цвета : BT.709
Характеристики трансфера : BT.709
Коэффициенты матрицы : BT.709

Аудио
Идентификатор : 2
Формат : AC-3
Формат/Информация : Audio Coding 3
Коммерческое название : Dolby Digital
Идентификатор кодека : A_AC3
Продолжительность : 1 ч. 14 м.
Вид битрейта : Постоянный
Битрейт : 192 Кбит/сек
Каналы : 1 канал
ChannelLayout : C
Частота : 48,0 КГц
Частота кадров : 31,250 кадров/сек (1536 SPF)
Битовая глубина : 16 бит
Метод сжатия : С потерями
Задержка видео : -5 мс.
Размер потока : 103 Мбайт (6%)
Заголовок : Mono
ServiceKind/String : Complete Main
Default : Да
Forced : Нет


pb.wtf



pack Скачать Шерлик Холмс через торрент http://i97.fastpic.ru/big/2017/1113/ce/fe9b1c6a2ec616e22fd27644ac64a1ce.jpg Скачать, смотреть онлайн Шерлик Холмс бесплантно в хорошем качестве Описание: Lascivious detective Sherlick Holmes and his equally randy partner Dr. Watson discover a time machine that transports them to New ... 6.7 10 6
Info! Золотая раздача, скачанное не засчитывается.
Торрент: Зарегистрирован [2020-02-25 21:07] · скачан: 148 раз
Статус: √ проверено
Размер: 1.6 GB
Как cкачать? Как скачать Шерлик Холмс через торрент | UTorrent

28-11-2019 20:33  

Отключить вcю реклaмy на сайте

    Дорогой пользователь! Огромная просьба, поблагодарите релизера, оцените раздачу и оставьте свои комментарий, если Вы скачали Шерлик Холмс через торрент бесплатно!
    Комментировать посты могут только пользователи прошедшие не сложную регистрацию
    Показать сообщения:    

    Шерлик Холмс через торрент
    Скачать бесплатно Шерлик Холмс
    Шерлик Холмс скачать торрент
    Шерлик Холмс смотреть онлайн
    Cкачать фильм Шерлик Холмс бесплатно
    Шерлик Холмс скачать торрент в хорошем качестве
    Шерлик Холмс смотреть онлайн бесплатно в хорошем качестве


    Вы не можете начинать темы
    Вы не можете отвечать на сообщения
    Вы не можете редактировать свои сообщения
    Вы не можете удалять свои сообщения
    Вы не можете голосовать в опросах
    Вы не можете прикреплять файлы к сообщениям
    Вы можете скачивать файлы