Доктор Стрэндж

Лицензия

Добыча

Дубляж

Дом дракона

1 сезон

Тор

Дубляж

В эфире

Дубляж

Там, где раки поют

MVO

Властелин колец

1 сезон

GLOBAL

pack

Рекомендуем

30

Пиратка

ВАЖНО

ВАЖНО

Ghostwire

Пиратка

jed

RePack

nioh2

RePack

RDR2

RePack

NEED FOR SPEED™ PAYBACK

RePack

скачать торрент

Кинопоиск HD

Острые козырьки 6 сезон

6 сезон

FAR CRY 6

RePack

скачать торрент

Лицензия

скачать торрент

MVO

1

1 сезон

скачать торрент

1 сезон

скачать торрент

Лицензия

  

Прощальный квартет / A Late Quartet (Ярон Зиберман) [2012, драма музыка, BDRip-AVC ] MVO, DVO, AVO

Прощальный квартет через торрент pb.wtf

Размер: 2.75 GB | Добавлен: 2 года 7 мес. назад | Торрент скачан:2 раза
Смотреть онлайн | Скачать   

31-03-2020 05:45 Прощальный квартет Скачать торрент  

Название: Прощальный квартет
Оригинальное название: A Late Quartet
Год выпуска: 2012
Страна: США
Жанр: драма музыка
Продолжительность: 01:46:09
Перевод: профессиональный многоголосый, профессиональный двухголосый, авторский
Режиссер: Ярон Зиберман
В ролях: Кристофер Уокен, Филип Сеймур Хоффман, Кэтрин Кинер, Имоджен Путс, Уоллес Шон, Марк Иванир, Лираз Чарчи, Мадхур Джаффри

Описание: Фильм рассказывает о сложных взаимоотношениях музыкантов, играющих в струнном квартете. Музыканты переживают сложные личные драмы, при этом их отношения влияют на музыкальную деятельность квартета. Но музыка важнее всего, и именно она заставляет переживать личные жизненные драмы и принимать непростые личные решения...



Качество: BDRip-AVC
Формат: MKV
Видео: MPEG-4 AVC, 2452 Кбит/с, 1024x426
Аудио 1: русский, AC3, 160 kbps, 2 ch, 48 kHz [закадровый многоголосый]
Аудио 2: русский, AC3, 192 kbps, 2 ch, 48 kHz [закадровый двухголосый, Elrom]
Аудио 3: русский, AC3, 448 kbps, 6 ch, 48 kHz [авторский, Юрий Сербин]
Аудио 4: английский, AC3, 448 kbps, 6 ch, 48 kHz [оригинал]
Субтитры 1: русские
Субтитры 2: английские
Главы/чаптеры
Общее
Уникальный идентификатор : 212359066276212034368987672345587730020 (0x9FC2DE54129A1281B57C526A163BC664)
Полное имя : D:\Video\Прощальный квартет.2012.BDRip-AVC by msltel.mkv
Формат : Matroska
Версия формата : Version 4
Размер файла : 2,75 Гбайт
Продолжительность : 1 ч. 46 м.
Общий поток : 3702 Кбит/сек
Название фильма : Rip by msltel
Дата кодирования : UTC 2020-03-30 14:58:53
Программа кодирования : mkvmerge v8.2.0 ('World of Adventure') 64bit
Библиотека кодирования : libebml v1.3.1 + libmatroska v1.4.2

Видео
Идентификатор : 1
Формат : AVC
Формат/Информация : Advanced Video Codec
Профиль формата : [email protected]
Настройки формата : CABAC / 14 Ref Frames
Параметр CABAC формата : Да
Параметр RefFrames формата : 14 кадров
Идентификатор кодека : V_MPEG4/ISO/AVC
Продолжительность : 1 ч. 46 м.
Битрейт : 2452 Кбит/сек
Ширина : 1024 пикселя
Высота : 426 пикселей
Соотношение сторон : 2,40:1
Режим частоты кадров : Постоянный
Частота кадров : 23,976 (24000/1001) кадра/сек
Цветовое пространство : YUV
Субдискретизация насыщенности : 4:2:0
Битовая глубина : 8 бит
Тип развёртки : Прогрессивная
Бит/(Пиксели*Кадры) : 0.234
Размер потока : 1,82 Гбайт (66%)
Библиотека кодирования : x264 core 159 r2991 1771b55
Настройки программы : cabac=1 / ref=14 / deblock=1:-2:-2 / analyse=0x3:0x113 / me=umh / subme=11 / psy=1 / psy_rd=1.00:0.15 / mixed_ref=1 / me_range=32 / chroma_me=1 / trellis=2 / 8x8dct=1 / cqm=0 / deadzone=21,11 / fast_pskip=0 / chroma_qp_offset=-3 / threads=6 / lookahead_threads=1 / sliced_threads=0 / nr=0 / decimate=1 / interlaced=0 / bluray_compat=0 / constrained_intra=0 / bframes=16 / b_pyramid=2 / b_adapt=2 / b_bias=0 / direct=1 / weightb=1 / open_gop=0 / weightp=2 / keyint=230 / keyint_min=23 / scenecut=40 / intra_refresh=0 / rc_lookahead=40 / rc=crf / mbtree=1 / crf=15.0 / qcomp=0.60 / qpmin=0 / qpmax=69 / qpstep=4 / vbv_maxrate=50000 / vbv_bufsize=62500 / crf_max=0.0 / nal_hrd=none / filler=0 / ip_ratio=1.40 / aq=1:1.00
Язык : English
Default : Да
Forced : Нет

Аудио #1
Идентификатор : 2
Формат : AC-3
Формат/Информация : Audio Coding 3
Коммерческое название : Dolby Digital
Идентификатор кодека : A_AC3
Продолжительность : 1 ч. 46 м.
Вид битрейта : Постоянный
Битрейт : 160 Кбит/сек
Каналы : 2 канала
ChannelLayout : L R
Частота : 48,0 КГц
Частота кадров : 31,250 кадров/сек (1536 SPF)
Метод сжатия : С потерями
Размер потока : 121 Мбайт (4%)
Заголовок : MVO
Язык : Russian
ServiceKind/String : Complete Main
Default : Да
Forced : Нет

Аудио #2
Идентификатор : 3
Формат : AC-3
Формат/Информация : Audio Coding 3
Коммерческое название : Dolby Digital
Идентификатор кодека : A_AC3
Продолжительность : 1 ч. 46 м.
Вид битрейта : Постоянный
Битрейт : 192 Кбит/сек
Каналы : 2 канала
ChannelLayout : L R
Частота : 48,0 КГц
Частота кадров : 31,250 кадров/сек (1536 SPF)
Метод сжатия : С потерями
Размер потока : 146 Мбайт (5%)
Заголовок : DVO Elrom
Язык : Russian
ServiceKind/String : Complete Main
Default : Нет
Forced : Нет

Аудио #3
Идентификатор : 4
Формат : AC-3
Формат/Информация : Audio Coding 3
Коммерческое название : Dolby Digital
Идентификатор кодека : A_AC3
Продолжительность : 1 ч. 46 м.
Вид битрейта : Постоянный
Битрейт : 448 Кбит/сек
Каналы : 6 каналов
ChannelLayout : L R C LFE Ls Rs
Частота : 48,0 КГц
Частота кадров : 31,250 кадров/сек (1536 SPF)
Метод сжатия : С потерями
Размер потока : 340 Мбайт (12%)
Заголовок : Юрий Сербин
Язык : Russian
ServiceKind/String : Complete Main
Default : Нет
Forced : Нет

Аудио #4
Идентификатор : 5
Формат : AC-3
Формат/Информация : Audio Coding 3
Коммерческое название : Dolby Digital
Идентификатор кодека : A_AC3
Продолжительность : 1 ч. 46 м.
Вид битрейта : Постоянный
Битрейт : 448 Кбит/сек
Каналы : 6 каналов
ChannelLayout : L R C LFE Ls Rs
Частота : 48,0 КГц
Частота кадров : 31,250 кадров/сек (1536 SPF)
Метод сжатия : С потерями
Размер потока : 340 Мбайт (12%)
Заголовок : original
Язык : English
ServiceKind/String : Complete Main
Default : Нет
Forced : Нет

Текст #1
Идентификатор : 6
Формат : UTF-8
Идентификатор кодека : S_TEXT/UTF8
Идентификатор кодека/Информация : UTF-8 Plain Text
Продолжительность : 1 ч. 37 м.
Битрейт : 87 бит/сек
ElementCount : 1009
Размер потока : 62,4 Кбайт (0%)
Заголовок : русские
Язык : Russian
Default : Нет
Forced : Нет

Текст #2
Идентификатор : 7
Формат : UTF-8
Идентификатор кодека : S_TEXT/UTF8
Идентификатор кодека/Информация : UTF-8 Plain Text
Продолжительность : 1 ч. 45 м.
Битрейт : 56 бит/сек
ElementCount : 1230
Размер потока : 44,0 Кбайт (0%)
Заголовок : английские
Язык : English
Default : Нет
Forced : Нет

Меню
00:00:00.000 : en:00:00:00.000
00:05:24.366 : en:00:05:24.366
00:09:29.360 : en:00:09:29.360
00:15:04.320 : en:00:15:04.320
00:17:35.596 : en:00:17:35.596
00:22:01.487 : en:00:22:01.487
00:28:25.746 : en:00:28:25.746
00:32:28.196 : en:00:32:28.196
00:39:51.306 : en:00:39:51.306
00:42:04.856 : en:00:42:04.856
00:50:18.265 : en:00:50:18.265
00:52:49.083 : en:00:52:49.083
00:58:56.783 : en:00:58:56.783
01:05:37.350 : en:01:05:37.350
01:08:46.914 : en:01:08:46.914
01:13:08.092 : en:01:13:08.092
01:17:22.763 : en:01:17:22.763
01:21:52.074 : en:01:21:52.074
01:23:53.237 : en:01:23:53.237
01:29:13.890 : en:01:29:13.890
01:31:53.925 : en:01:31:53.925
01:36:17.647 : en:01:36:17.647
01:38:56.305 : en:01:38:56.305
01:42:15.129 : en:01:42:15.129



Скачать Прощальный квартет через торрент https://c.radikal.ru/c01/2003/0f/64da030eba47.jpg Скачать, смотреть онлайн Прощальный квартет бесплантно в хорошем качестве Описание: Фильм рассказывает о сложных взаимоотношениях музыкантов, играющих в струнном квартете. Музыканты переживают сложные личные ... 5 10 1
Торрент: Зарегистрирован [2020-03-31 05:45] · скачан: 2 раз
Статус: √ проверено
Размер: 2.75 GB
Как cкачать? Как скачать Прощальный квартет через торрент | UTorrent

% Раздел Тема Автор DL S | L
Фильмы [HD 720p, 1080p] (Хороший звук DUB, MVO) [ 14.11 GB ] Прощальный квартет / A Late Quartet | MVO | 1080p msltel Скачать
1 | 0
Фильмы [HD 720p, 1080p] (Хороший звук DUB, MVO) [ 4.61 GB ] Прощальный квартет / A Late Quartet | MVO | 720p msltel Скачать
1 | 0

28-11-2019 20:33  


Отключить вcю реклaмy на сайте, в т.ч. и в плеере онлайн просмотра!

    Дорогой пользователь! Огромная просьба, поблагодарите релизера, оцените раздачу и оставьте свои комментарий, если Вы скачали Прощальный квартет через торрент бесплатно!!
    Комментировать посты могут только пользователи прошедшие не сложную регистрацию
    Показать сообщения:    


    Прощальный квартет через торрент
    Скачать бесплатно Прощальный квартет
    Прощальный квартет скачать торрент
    Прощальный квартет смотреть онлайн
    Cкачать фильм Прощальный квартет бесплатно
    Прощальный квартет скачать торрент в хорошем качестве
    Прощальный квартет смотреть онлайн бесплатно в хорошем качестве
    Вы не можете начинать темы
    Вы не можете отвечать на сообщения
    Вы не можете редактировать свои сообщения
    Вы не можете удалять свои сообщения
    Вы не можете голосовать в опросах
    Вы не можете прикреплять файлы к сообщениям
    Вы можете скачивать файлы
    Прощальный квартет / A Late Quartet [2012, драма музыка, BDRip-AVC ] MVO, DVO, AVO смотреть онлайн, скачать торрент picoco.icu