Аватар: Путь воды

Дубляж

смотреть онлайн / скачать торрент Гран туризмо

Дубляж

смотреть онлайн / скачать торрент Кентавр

Лицензия

Активация Cyberpunk 2077+Phantom Liberty

Premium

Активация Lies of P

Deluxe

Активация Resident evil 4 remake+DLC Separate Ways

Игра+DLC

смотреть онлайн / скачать торрент Два, три, демон, приди!

MVO

смотреть онлайн / скачать торрент Форсаж 10

Лицензия

смотреть онлайн / скачать торрент Ведьмак / The Witcher / Сезон: 3

3 сезон

смотреть онлайн / скачать торрент Стражи Галактики. Часть 3

Дубляж

Рекомендуем

Рекомендуем

ВАЖНО

ВАЖНО

30

Лицензия

ARMORED CORE™ VI FIRES OF RUBICON™

Steam-Rip

jed

RePack

PAYDAY 3

Пиратка

RDR2

RePack

Hogwarts Legacy

Steam-Rip

смотреть онлайн / скачать торрент Захваченный

Невафильм

смотреть онлайн / скачать торрент Острые козырьки 6 сезон

6 сезон

FAR CRY 6

RePack

смотреть онлайн / скачать торрент Доктор Стрэндж

Лицензия

скачать торрент Dead Island™ 2

EGS-Rip

скачать торрент The Quarry

Steam-Rip

смотреть онлайн / скачать торрент Мэверик

Лицензия

  

Холостяк на свадьбе / Le discours (Лоран Тирар) [2020, Комедия, WEB-DL 1080p] Дубляж [Кинопоиск HD]

Холостяк на свадьбе через торрент pb.wtf

Размер: 4.05 GB | Добавлен: 1 год 11 мес. назад | Торрент скачан:192 раза
XBOX GAME PASS [PC] +400 игр (13 мес)

2021-10-17 03:10 Холостяк на свадьбе Скачать торрент  

Холостяк на свадьбе | Le discours
Год выпуска: 2020
Страна: Франция, Бельгия
Студия: C8, Canal+ [fr], Ciné, Cinécap 3, Cinémage 14, Cinéventure 5, France 2 Cinéma, France Télévision, La Banque Postale Image 13, Le Pacte, les Films sur Mesure, Scope Pictures
Жанр: Комедия
Продолжительность: 01:24:27
Перевод: Дублированный | Кинопоиск HD
Субтитры: отсутствуют

Режиссер: Лоран Тирар

рейтинг кинопоиск рейтинг imdb

В ролях: Бенжамен Лаверн, Сара Жиродо, Джулия Пьятон, Киан Кожанди, Гилен Лондез, Франсуа Морель, Марилу Оссийу, Сара Суко, Кристоф Монтене, Аделин Д’Эрми

Описание: Заядлого холостяка Адриана родственники просят подготовить торжественный тост к скорой свадьбе сестры. Адриана охватывает паника. Он не любит выступать на публике, но еще больше ненавидит свадьбы. Убежденному браконенавистнику предстоит настоящее испытание, и самое сложное в нем — не превратить свадьбу сестры в семейную разборку, где может достаться всем!

Качество: WEB-DL 1080p
Формат: MKV

Видео: MPEG-4 AVC, 1920x804, 6000 Kbit/s, 25.000 fps
Аудио #01: 48 kHz, E-AC3, 5.1, 448 Kbps | Дублированный | RUS |
Аудио #02: 48 kHz, AC3, 5.1, 448 Kbps | Дублированный | RUS |
скриншот  скриншот  скриншот  скриншот  скриншот  

General
Unique ID : 129651303345031539056048035411883747163 (0x6189EEC85149982F18AE63771DB8675B)
Complete name : E:VideoLe.discours.2020.WEB-DL.1080p.seleZen.mkv
Format : Matroska
Format version : Version 4
File size : 4.05 GiB
Duration : 1 h 24 min
Overall bit rate : 6 871 kb/s
Movie name : Le discours 2020 from seleZen
Encoded date : UTC 2021-10-16 21:01:27
Writing application : mkvmerge v59.0.0 ('Shining Star') 64-bit
Writing library : libebml v1.4.2 + libmatroska v1.6.4

Video
ID : 1
Format : AVC
Format/Info : Advanced Video Codec
Format profile : High@L4
Format settings : CABAC / 5 Ref Frames
Format settings, CABAC : Yes
Format settings, Reference frames : 5 frames
Codec ID : V_MPEG4/ISO/AVC
Duration : 1 h 24 min
Bit rate : 6 000 kb/s
Width : 1 920 pixels
Height : 804 pixels
Display aspect ratio : 2.40:1
Frame rate mode : Constant
Frame rate : 25.000 FPS
Color space : YUV
Chroma subsampling : 4:2:0
Bit depth : 8 bits
Scan type : Progressive
Bits/(Pixel*Frame) : 0.155
Stream size : 3.52 GiB (87%)
Writing library : x264 core 157
Encoding settings : cabac=1 / ref=5 / deblock=1:0:0 / analyse=0x3:0x133 / me=umh / subme=10 / psy=1 / psy_rd=1.00:0.00 / mixed_ref=1 / me_range=24 / chroma_me=1 / trellis=2 / 8x8dct=1 / cqm=0 / deadzone=21,11 / fast_pskip=1 / chroma_qp_offset=-2 / threads=25 / lookahead_threads=4 / sliced_threads=0 / nr=0 / decimate=1 / interlaced=0 / bluray_compat=0 / constrained_intra=0 / bframes=8 / b_pyramid=2 / b_adapt=2 / b_bias=0 / direct=3 / weightb=1 / open_gop=0 / weightp=2 / keyint=200 / keyint_min=100 / scenecut=40 / intra_refresh=0 / rc_lookahead=60 / rc=2pass / mbtree=1 / bitrate=6000 / ratetol=1.0 / qcomp=0.60 / qpmin=0 / qpmax=69 / qpstep=4 / cplxblur=20.0 / qblur=0.5 / vbv_maxrate=6600 / vbv_bufsize=9000 / nal_hrd=none / filler=0 / ip_ratio=1.40 / aq=1:1.00
Language : French
Default : Yes
Forced : No

Audio #1
ID : 2
Format : E-AC-3
Format/Info : Enhanced AC-3
Commercial name : Dolby Digital Plus
Codec ID : A_EAC3
Duration : 1 h 24 min
Bit rate mode : Constant
Bit rate : 448 kb/s
Channel(s) : 6 channels
Channel layout : L R C LFE Ls Rs
Sampling rate : 48.0 kHz
Frame rate : 31.250 FPS (1536 SPF)
Compression mode : Lossy
Stream size : 271 MiB (7%)
Title : Дубляж
Language : Russian
Service kind : Complete Main
Default : Yes
Forced : Yes

Audio #2
ID : 3
Format : AC-3
Format/Info : Audio Coding 3
Commercial name : Dolby Digital
Codec ID : A_AC3
Duration : 1 h 24 min
Bit rate mode : Constant
Bit rate : 448 kb/s
Channel(s) : 6 channels
Channel layout : L R C LFE Ls Rs
Sampling rate : 48.0 kHz
Frame rate : 31.250 FPS (1536 SPF)
Compression mode : Lossy
Stream size : 271 MiB (7%)
Title : Дубляж
Language : Russian
Service kind : Complete Main
Default : No
Forced : No



Что делать, если пишет видео недоступно?
Смотрeть онлайн фильм Холостяк на свадьбе в хорошем HD 1080 качестве



Описание: Заядлого холостяка Адриана родственники просят подготовить торжественный тост к скорой свадьбе сестры. Адриана охватывает ... https://d.radikal.ru/d41/2110/fc/444f584f83ce.jpg https://d.radikal.ru/d41/2110/fc/444f584f83ce.jpg 2021-10-17 03:10 Cмотреть онлайн Холостяк на свадьбе true ru Скачать Холостяк на свадьбе через торрент, смотреть онлайн Холостяк на свадьбе https://d.radikal.ru/d41/2110/fc/444f584f83ce.jpg Скачать, смотреть онлайн Холостяк на свадьбе бесплатно в хорошем качестве Описание: Заядлого холостяка Адриана родственники просят подготовить торжественный тост к скорой свадьбе сестры. Адриана охватывает ... 9.7 10 6
Торрент: Зарегистрирован [2021-10-17 03:10] · скачан: 192 раз
Статус: √ проверено
Размер: 4.05 GB
Как cкачать? Как скачать Холостяк на свадьбе через торрент | UTorrent | Поделиться в телеграм

% Раздел Тема Автор DL S | L
Фильмы [HD 720p, 1080p] (Хороший звук DUB, MVO) [ 9.25 GB ] Холостяк на свадьбе / Le discours | DUB | 1080p bober100 Скачать
2 | 0
Фильмы (Blu-ray, BD-Remux, HDDVD) [ 24.09 GB ] Холостяк на свадьбе / Le discours | DUB | BD Remux 1080p bober100 Скачать
1 | 0
Фильмы 2019-2020 [DVDrip, WEB-DLRip, HDrip] (DUB, MVO) [ 1.46 GB ] Холостяк на свадьбе / Le discours | DUB | BDRip bober100 Скачать
1 | 0
Фильмы 2021 [DVDrip, WEB-DLRip, HDrip] (DUB, MVO) [ 1.46 GB ] Холостяк на свадьбе / Le discours | Лицензия | DLRip Twi7ter Скачать
1 | 0
Фильмы 2019-2020 [DVDrip, WEB-DLRip, HDrip] (DUB, MVO) [ 1.59 GB ] Холостяк на свадьбе / Le discours | DUB | DLRip-AVC Lithuania Скачать
1 | 0

28-11-2019 20:33  


Отключить вcю реклaмy на сайте, в т.ч. и в плеере онлайн просмотра!

    Дорогой пользователь! Огромная просьба, поблагодарите релизера, оцените раздачу и оставьте свои комментарий, если Вы скачали Холостяк на свадьбе через торрент бесплатно!!
    Комментировать посты могут только пользователи прошедшие не сложную регистрацию
    Показать сообщения:    


    смотреть онлайн Холостяк на свадьбе
    Холостяк на свадьбе через торрент
    Скачать бесплатно Холостяк на свадьбе
    Холостяк на свадьбе скачать торрент
    Холостяк на свадьбе смотреть онлайн
    Cкачать фильм Холостяк на свадьбе бесплатно
    Холостяк на свадьбе скачать торрент в хорошем качестве
    Холостяк на свадьбе смотреть онлайн бесплатно в хорошем качестве
    Вы не можете начинать темы
    Вы не можете отвечать на сообщения
    Вы не можете редактировать свои сообщения
    Вы не можете удалять свои сообщения
    Вы не можете голосовать в опросах
    Вы не можете прикреплять файлы к сообщениям
    Вы можете скачивать файлы