Всегда рабочее зеркало без VPN и Proxy просто перед .vidak.icu напиши любое слово или цифру, Пример http://5dmw.vidak.icu

MVO

2 сезон

2 сезон

1

1 сезон

iTunes

2 сезон

13

1 сезон

Распродажа

pack

Рекомендуем

Пиратка

30

ВАЖНО

RePack

MK11

RePack

jed

RePack

fifa19

RePack

RDR2

RePack

NEED FOR SPEED™ PAYBACK

Кинопоиск HD

6 сезон

 Острые козырьки 6 сезон

Все сериалы

все сериалы на PB.wtf

RePack

FAR CRY 5

Anonymous, нам критически не хватает 5601 руб. на оплату серверов и переферии за Апрель, помоги нам пожалуйста, вся надежда только на тебя. В благодарность мы отключим тебе всю рекламу на сайте!

×
  
Magnet ссылка

Черный ящик / Boîte noire / Black Box (Ян Гозлан) [2021, Триллер, драма, детектив, BDRip 1080p] DUB [СиПиАй Филмз / CPI Films | КиноПоиск HD] pb.wtf

Черный ящик через торрент pb.wtf

Раздают: 5 [ 21 KB/s ]
Размер: 11.75 GB | Добавлен: 3 мес. 16 д. назад | Торрент скачан:262 раза
Смотреть онлайн Черный ящик | Скачать    Ребята, помогите собрать деньги на оплату серверов!!!

11-01-2022 18:57 Черный ящик Скачать торрент  

Черный ящик
Boîte noire | Black Box

Год выпуска: 2021
Страна: Франция, Бельгия
Выпущено: Wy Productions, 2425 Films, StudioCanal
Жанр: Триллер, драма, детектив
Продолжительность: 02:09:44
Перевод: Дублированный | СиПиАй Филмз / CPI Films | КиноПоиск HD
Субтитры: Английские, французские

Режиссер: Ян Гозлан

rating

В ролях: Пьер Нинэ, Лу де Лааж, Андре Дюссолье, Себастьен Пудеру, Оливье Рабурден, Гийом Марке, Мехди Джаади, Энн Азулай, Орельен Рекуан, Грегори Деранжер

Описание: Крушение новейшего авиалайнера уносит жизни сотен людей. Пролить свет на причины катастрофы может только расшифровка чёрного ящика. Расследование возглавляет талантливый и эксцентричный аналитик Матьё с уникальным слухом. Чем дальше он продвигается на своем пути, тем больше обнаруживает подозрительных обстоятельств. Но никто не верит Матьё. Так может это всего лишь изощрённые игры его разума?

Качество: BDRip 1080p
Формат: MKV

Видео: MPEG-4 AVC, 11.4 Мбит/с, 1920x798, 24 Кадр/с
Аудио #01: 48 kHz, AC3, 5.1, 448 Kbps | Дублированный | Кинопоиск HD | RUS |
Аудио #02: 48 kHz, E-AC3, 5.1, 448 Kbps | Дублированный | Кинопоиск HD | RUS |
Аудио #03: 48 kHz, AC3, 5.1, 640 Kbps | Оригинал | FRE |
скриншот  скриншот  скриншот  скриншот  скриншот  

Complete name : Chernyiy.yaschik.2021.BDRip.1080p.ELEKTRI4KA.UNIONGANG.mkv
Format : Matroska
Format version : Version 4
File size : 11.7 GiB
Duration : 2 h 9 min
Overall bit rate : 13.0 Mb/s
Movie name : Chernyiy.yaschik.2021.BDRip.1080p.ELEKTRI4KA.UNIONGANG.
Encoded date : UTC 2022-02-02 22:05:50
Writing application : mkvmerge v8.3.0 ('Over the Horizon') 32bit
Writing library : libebml v1.3.1 + libmatroska v1.4.2

Video
ID : 1
Format : AVC
Format/Info : Advanced Video Codec
Format profile : High@L4.1
Format settings : CABAC / 5 Ref Frames
Format settings, CABAC : Yes
Format settings, Reference frames : 5 frames
Codec ID : V_MPEG4/ISO/AVC
Duration : 2 h 9 min
Bit rate : 11.4 Mb/s
Width : 1 920 pixels
Height : 798 pixels
Display aspect ratio : 2.40:1
Frame rate mode : Constant
Frame rate : 24.000 FPS
Color space : YUV
Chroma subsampling : 4:2:0
Bit depth : 8 bits
Scan type : Progressive
Bits/(Pixel*Frame) : 0.311
Stream size : 10.4 GiB (88%)
Writing library : x264 core 164 r3075+55M 97d28bb t_mod_New [(8 & 10)-bit@all X86_64]
Encoding settings : cabac=1 / ref=5 / deblock=1:-3:-3 / analyse=0x3:0x133 / me=umh / subme=10 / psy=1 / fade_compensate=0.00 / psy_rd=0.97:0.00 / mixed_ref=1 / me_range=32 / chroma_me=1 / trellis=2 / 8x8dct=1 / cqm=0 / deadzone=21,11 / fast_pskip=0 / chroma_qp_offset=-2 / threads=18 / lookahead_threads=4 / sliced_threads=0 / nr=0 / decimate=0 / interlaced=0 / bluray_compat=0 / constrained_intra=0 / fgo=0 / bframes=10 / b_pyramid=2 / b_adapt=2 / b_bias=0 / direct=3 / weightb=1 / open_gop=0 / weightp=2 / keyint=240 / keyint_min=24 / scenecut=40 / intra_refresh=0 / rc_lookahead=60 / rc=crf / mbtree=0 / crf=15.7000 / qcomp=0.65 / qpmin=0:0:0 / qpmax=69:69:69 / qpstep=4 / vbv_maxrate=62500 / vbv_bufsize=78125 / crf_max=0.0 / nal_hrd=none / filler=0 / ip_ratio=1.35 / pb_ratio=1.25 / aq=3:0.85 / aq-sensitivity=10.00 / aq-factor=1.00:1.00:1.00 / aq2=0 / aq3=0
Language : French
Default : Yes
Forced : No
Color range : Limited
Color primaries : BT.709
Transfer characteristics : BT.709
Matrix coefficients : BT.709

Audio #1
ID : 2
Format : AC-3
Format/Info : Audio Coding 3
Commercial name : Dolby Digital
Codec ID : A_AC3
Duration : 2 h 9 min
Bit rate mode : Constant
Bit rate : 448 kb/s
Channel(s) : 6 channels
Channel layout : L R C LFE Ls Rs
Sampling rate : 48.0 kHz
Frame rate : 31.250 FPS (1536 SPF)
Compression mode : Lossy
Stream size : 416 MiB (3%)
Title : DUB EAC3 (KinoPoisk HD)
Language : Russian
Service kind : Complete Main
Default : Yes
Forced : Yes

Audio #2
ID : 3
Format : E-AC-3
Format/Info : Enhanced AC-3
Commercial name : Dolby Digital Plus
Codec ID : A_EAC3
Duration : 2 h 9 min
Bit rate mode : Constant
Bit rate : 448 kb/s
Channel(s) : 6 channels
Channel layout : L R C LFE Ls Rs
Sampling rate : 48.0 kHz
Frame rate : 31.250 FPS (1536 SPF)
Compression mode : Lossy
Stream size : 416 MiB (3%)
Title : DUB EAC3 (KinoPoisk HD)
Language : Russian
Service kind : Complete Main
Default : No
Forced : No

Audio #3
ID : 4
Format : AC-3
Format/Info : Audio Coding 3
Commercial name : Dolby Digital
Codec ID : A_AC3
Duration : 2 h 9 min
Bit rate mode : Constant
Bit rate : 640 kb/s
Channel(s) : 6 channels
Channel layout : L R C LFE Ls Rs
Sampling rate : 48.0 kHz
Frame rate : 31.250 FPS (1536 SPF)
Compression mode : Lossy
Stream size : 594 MiB (5%)
Title : Original
Language : French
Service kind : Complete Main
Default : No
Forced : No

Text #1
ID : 5
Format : UTF-8
Codec ID : S_TEXT/UTF8
Codec ID/Info : UTF-8 Plain Text
Duration : 2 h 9 min
Bit rate : 45 b/s
Count of elements : 1475
Stream size : 43.3 KiB (0%)
Title : full
Language : English
Default : No
Forced : No

Text #2
ID : 6
Format : UTF-8
Codec ID : S_TEXT/UTF8
Codec ID/Info : UTF-8 Plain Text
Duration : 2 h 9 min
Bit rate : 47 b/s
Count of elements : 1475
Stream size : 44.6 KiB (0%)
Title : full
Language : French
Default : No
Forced : No

Menu
00:00:00.000 : en:Chapter 01
00:08:26.083 : en:Chapter 02
00:19:20.542 : en:Chapter 03
00:28:55.000 : en:Chapter 04
00:39:09.000 : en:Chapter 05
00:49:04.958 : en:Chapter 06
00:59:41.000 : en:Chapter 07
01:13:12.500 : en:Chapter 08
01:19:47.500 : en:Chapter 09
01:31:26.833 : en:Chapter 10
01:40:16.750 : en:Chapter 11
01:48:49.667 : en:Chapter 12

pb.wtf



Скачать Черный ящик через торрент https://i116.fastpic.org/big/2022/0122/70/25f73f5584f2dd8ed8c58c048541c070.png Скачать, смотреть онлайн Черный ящик бесплантно в хорошем качестве Описание: Крушение новейшего авиалайнера уносит жизни сотен людей. Пролить свет на причины катастрофы может только расшифровка чёрного ... 10 10 15
Info! Золотая раздача, скачанное не засчитывается.
Торрент: Зарегистрирован [2022-02-03 03:46] · скачан: 262 раз
Статус: √ проверено
Размер: 11.75 GB
Как cкачать? Как скачать Черный ящик через торрент | UTorrent

% Раздел Тема Автор DL S | L
Фильмы 2021 [DVDrip, WEB-DLRip, HDrip] (DUB, MVO) [ 2.18 GB ] Черный ящик / Boîte noire / Black Box [2021 BDRip] - [Кинопоиск HD] Twi7ter Скачать
18 | 0
Фильмы [HD 720p, 1080p] (Хороший звук DUB, MVO) [ 7.09 GB ] Черный ящик / Boîte noire / Black Box [2021 BDRip 720p] DUB [СиПиАй Филмз / CPI Films | КиноПоиск HD] bober100 Скачать
2 | 0
Фильмы 2021 [DVDrip, WEB-DLRip, HDrip] (DUB, MVO) [ 2.94 GB ] Черный ящик / Boîte noire / Black Box [2021 BDRip-AVC] DUB [КиноПоиск HD] от ExKinoRay Lithuania Скачать
3 | 0
Фильмы 2021 [DVDrip, WEB-DLRip, HDrip] (DUB, MVO) [ 1.46 GB ] Черный ящик / Boîte noire / Black Box [2021 BDRip] - [Кинопоиск HD] Twi7ter Скачать
72 | 0
Фильмы 2021 [DVDrip, WEB-DLRip, HDrip] (DUB, MVO) [ 1.45 GB ] Черный ящик / Boîte noire / Black Box [2021 BDRip] DUB [СиПиАй Филмз / CPI Films | КиноПоиск HD] bober100 Скачать
1 | 0
Фильмы (Blu-ray, BD-Remux, HDDVD) [ 28.1 GB ] Черный ящик / Boîte noire / Black Box [2021 BD Remux 1080p] DUB [СиПиАй Филмз / CPI Films | КиноПоиск HD] bober100 Скачать
1 | 0
Фильмы 2021 [DVDrip, WEB-DLRip, HDrip] (DUB, MVO) [ 2.21 GB ] Черный ящик / Boîte noire / Black Box [2021 BDRip-AVC] DUB [СиПиАй Филмз / CPI Films | КиноПоиск HD] bober100 Скачать
1 | 0

28-11-2019 20:33  

Отключить всю рекламу на сайте

    Дорогой пользователь! Огромная просьба, поблагодарите релизера, оцените раздачу и оставьте свои комментарий, если Вы скачали Черный ящик через торрент бесплатно!
    Комментировать посты могут только пользователи прошедшие не сложную регистрацию
    Показать сообщения:    

    Черный ящик через торрент
    Скачать бесплатно Черный ящик
    Черный ящик скачать торрент
    Черный ящик смотреть онлайн
    Cкачать фильм Черный ящик бесплатно
    Черный ящик скачать торрент в хорошем качестве
    Черный ящик смотреть онлайн бесплатно в хорошем качестве


    Вы не можете начинать темы
    Вы не можете отвечать на сообщения
    Вы не можете редактировать свои сообщения
    Вы не можете удалять свои сообщения
    Вы не можете голосовать в опросах
    Вы не можете прикреплять файлы к сообщениям
    Вы можете скачивать файлы