Всегда рабочее зеркало без VPN и Proxy просто перед .vidak.icu напиши любое слово или цифру, Пример http://1vbz.vidak.icu

MVO

Лицензия

1 сезон

1

1 сезон

iTunes

1 сезон

13

1 сезон

Deluxe

pack

Рекомендуем

Пиратка

30

ВАЖНО

RePack

MK11

RePack

jed

RePack

fifa19

RePack

RDR2

RePack

NEED FOR SPEED™ PAYBACK

Кинопоиск HD

6 сезон

 Острые козырьки 6 сезон

Все сериалы

все сериалы на PB.wtf

RePack

FAR CRY 5
  
Magnet ссылка

Внезапная удача / Windfall (Чарли МакДауэлл) [2022, Триллер, драма, криминал, WEB-DLRip-AVC] DUB [Netflix] от ExKinoRay pb.wtf

Внезапная удача через торрент pb.wtf

Раздают: 2 [ 0 KB/s ]
Размер: 1.77 GB | Добавлен: 3 мес. 12 д. назад | Торрент скачан:137 раз
Смотреть онлайн Внезапная удача | Скачать    Ребята, помогите собрать деньги на оплату серверов!!!

18-03-2022 18:47 Внезапная удача Скачать торрент  


Внезапная удача / Windfall
Информация о фильме:
Название: Внезапная удача
Оригинальное название: Windfall
Год выхода: 2022
Жанр: Триллер, драма, криминал
Режиссер: Чарли МакДауэлл
В ролях: Джесси Племонс, Лили Коллинз, Джейсон Сигел, Омар Лейва

Описание: IT-миллиардер и его жена приезжают в свой загородный дом и обнаруживают там незнакомца. Мужчина берет пару в заложники и требует деньги, обвиняя богача в том, что он нажил свое состояние нечестным путем. Постепенно переговоры превращаются в опасную игру, которая может окончиться плохо для каждого из этой троицы.



Страна: США
Студия: High Frequency Entertainment, Mutressa Movies
Продолжительность: 01:45:22
Перевод: Дублированный - Netflix



Информация о файле:
Кодек: AVC
Формат: MKV
Качество: WEB-DLRip-AVC
Видео: MPEG-4 AVC, 1024x436, 23.976 fps, 1850 kb/s
Аудио RU: AC3, 6 ch, 48 kHz, 448 kbps
Аудио EN: AC3, 6 ch, 48 kHz, 448 kbps
Субтитры: Русские (Forced, full), украинские (Full), английские

x264 info: frame I:955 Avg QP:13.03 size: 83893
x264 info: frame P:23660 Avg QP:16.36 size: 24105
x264 info: frame B:108340 Avg QP:17.78 size: 5748
General
Unique ID : 163931047454335489341240475302258300504 (0x7B53F8A7D188AD9A8D1444D07F305658)
Complete name : D:uTorrentРипы wolf1245Windfall.2022.DUB.Netflix.x264.WEB-DLRip-AVC.[wolf1245.ExKinoRay].mkv
Format : Matroska
Format version : Version 4
File size : 1.77 GiB
Duration : 1 h 32 min
Overall bit rate : 2 735 kb/s
Movie name : Windfall.2022.DUB.Netflix.x264.WEB-DLRip-AVC.[wolf1245.ExKinoRay]
Encoded date : UTC 2022-03-18 18:32:46
Writing application : mkvmerge v66.0.0 ('Josie') 64-bit
Writing library : libebml v1.4.2 + libmatroska v1.6.4
Video
ID : 1
Format : AVC
Format/Info : Advanced Video Codec
Format profile : High@L4.1
Format settings : CABAC / 12 Ref Frames
Format settings, CABAC : Yes
Format settings, Reference frames : 12 frames
Codec ID : V_MPEG4/ISO/AVC
Duration : 1 h 32 min
Bit rate : 1 850 kb/s
Width : 1 024 pixels
Height : 436 pixels
Display aspect ratio : 2.35:1
Frame rate mode : Constant
Frame rate : 23.976 (24000/1001) FPS
Color space : YUV
Chroma subsampling : 4:2:0
Bit depth : 8 bits
Scan type : Progressive
Bits/(Pixel*Frame) : 0.173
Stream size : 1.19 GiB (67%)
Title : -=[wolf1245.ExKinoRay]=-
Writing library : x264 core 163 r3060 5db6aa6
Encoding settings : cabac=1 / ref=12 / deblock=1:-3:-2 / analyse=0x3:0x133 / me=umh / subme=10 / psy=1 / psy_rd=1.02:0.07 / mixed_ref=1 / me_range=32 / chroma_me=1 / trellis=2 / 8x8dct=1 / cqm=0 / deadzone=22,11 / fast_pskip=1 / chroma_qp_offset=-3 / threads=10 / lookahead_threads=2 / sliced_threads=0 / nr=0 / decimate=0 / interlaced=0 / bluray_compat=0 / constrained_intra=0 / bframes=10 / b_pyramid=2 / b_adapt=2 / b_bias=0 / direct=3 / weightb=1 / open_gop=0 / weightp=2 / keyint=240 / keyint_min=24 / scenecut=40 / intra_refresh=0 / rc_lookahead=60 / rc=2pass / mbtree=0 / bitrate=1850 / ratetol=1.0 / qcomp=0.60 / qpmin=0 / qpmax=69 / qpstep=4 / cplxblur=20.0 / qblur=0.5 / vbv_maxrate=50000 / vbv_bufsize=62500 / nal_hrd=none / filler=0 / ip_ratio=1.40 / pb_ratio=1.30 / aq=2:0.80
Language : English
Default : Yes
Forced : No
Audio #1
ID : 2
Format : AC-3
Format/Info : Audio Coding 3
Commercial name : Dolby Digital
Codec ID : A_AC3
Duration : 1 h 32 min
Bit rate mode : Constant
Bit rate : 448 kb/s
Channel(s) : 6 channels
Channel layout : L R C LFE Ls Rs
Sampling rate : 48.0 kHz
Frame rate : 31.250 FPS (1536 SPF)
Compression mode : Lossy
Stream size : 296 MiB (16%)
Title : DUB | Netflix | RUS
Language : Russian
Service kind : Complete Main
Default : Yes
Forced : No
Audio #2
ID : 3
Format : AC-3
Format/Info : Audio Coding 3
Commercial name : Dolby Digital
Codec ID : A_AC3
Duration : 1 h 32 min
Bit rate mode : Constant
Bit rate : 448 kb/s
Channel(s) : 6 channels
Channel layout : L R C LFE Ls Rs
Sampling rate : 48.0 kHz
Frame rate : 31.250 FPS (1536 SPF)
Compression mode : Lossy
Stream size : 296 MiB (16%)
Title : Original | ENG
Language : English
Service kind : Complete Main
Default : Yes
Forced : No
Text #1
ID : 4
Format : UTF-8
Codec ID : S_TEXT/UTF8
Codec ID/Info : UTF-8 Plain Text
Duration : 1 h 30 min
Bit rate : 0 b/s
Count of elements : 5
Stream size : 312 Bytes (0%)
Title : Forced
Language : Russian
Default : Yes
Forced : Yes
Text #2
ID : 5
Format : UTF-8
Codec ID : S_TEXT/UTF8
Codec ID/Info : UTF-8 Plain Text
Duration : 1 h 30 min
Bit rate : 68 b/s
Count of elements : 839
Stream size : 45.9 KiB (0%)
Title : Full
Language : Russian
Default : No
Forced : No
Text #3
ID : 6
Format : UTF-8
Codec ID : S_TEXT/UTF8
Codec ID/Info : UTF-8 Plain Text
Duration : 1 h 30 min
Bit rate : 65 b/s
Count of elements : 826
Stream size : 43.7 KiB (0%)
Title : Full
Language : Ukrainian
Default : No
Forced : No
Text #4
ID : 7
Format : UTF-8
Codec ID : S_TEXT/UTF8
Codec ID/Info : UTF-8 Plain Text
Duration : 1 h 27 min
Bit rate : 51 b/s
Count of elements : 1056
Stream size : 33.1 KiB (0%)
Title : SDH
Language : English
Default : No
Forced : No
Релиз от:
Автор релиза:
pb.wtf



Скачать Внезапная удача через торрент http://i116.fastpic.org/big/2022/0318/a5/95571a8517ddc4fbc561b611f11dc8a5.jpg Скачать, смотреть онлайн Внезапная удача бесплантно в хорошем качестве Описание: IT-миллиардер и его жена приезжают в свой загородный дом и обнаруживают там незнакомца. Мужчина берет пару в заложники и ... 10 10 9
Торрент: Зарегистрирован [2022-03-18 18:47] · скачан: 137 раз
Статус: √ проверено
Размер: 1.77 GB
Как cкачать? Как скачать Внезапная удача через торрент | UTorrent

28-11-2019 20:33  

Отключить всю рекламу на сайте

19-03-2022 00:04 Внезапная удача Скачать торрент  

Ну и хрень,...............................pb.wtf



19-03-2022 08:22 Внезапная удача Скачать торрент  

termyst писал(а):

Ну и хрень,...............................

спсpb.wtf



    Дорогой пользователь! Огромная просьба, поблагодарите релизера, оцените раздачу и оставьте свои комментарий, если Вы скачали Внезапная удача через торрент бесплатно!
    Комментировать посты могут только пользователи прошедшие не сложную регистрацию
    Показать сообщения:    

    Внезапная удача через торрент
    Скачать бесплатно Внезапная удача
    Внезапная удача скачать торрент
    Внезапная удача смотреть онлайн
    Cкачать фильм Внезапная удача бесплатно
    Внезапная удача скачать торрент в хорошем качестве
    Внезапная удача смотреть онлайн бесплатно в хорошем качестве


    Вы можете начинать темы
    Вы можете отвечать на сообщения
    Вы не можете редактировать свои сообщения
    Вы не можете удалять свои сообщения
    Вы не можете голосовать в опросах
    Вы не можете прикреплять файлы к сообщениям
    Вы можете скачивать файлы