Всегда рабочее зеркало без VPN и Proxy просто перед .vidak.icu напиши любое слово или цифру, Пример http://5jkf.vidak.icu

MVO

Лицензия

1 сезон

1

1 сезон

iTunes

1 сезон

13

1 сезон

Deluxe

pack

Рекомендуем

Пиратка

30

ВАЖНО

RePack

MK11

RePack

jed

RePack

fifa19

RePack

RDR2

RePack

NEED FOR SPEED™ PAYBACK

Кинопоиск HD

6 сезон

 Острые козырьки 6 сезон

Все сериалы

все сериалы на PB.wtf

RePack

FAR CRY 5

Anonymous, нам критически не хватает 2100 руб. на оплату серверов и переферии за МАЙ, помоги нам пожалуйста, вся надежда только на тебя. В благодарность мы отключим тебе всю рекламу на сайте!

×
  
Magnet ссылка

Смычок / Сезон: 1 / Серии: 1-8 из 8 (Александр Цой) [2022, Драма, WEBRip-AVC] pb.wtf

Смычок через торрент pb.wtf

Раздают: 3 [ 5 KB/s ]
Размер: 4.74 GB | Добавлен: 1 д. 7 ч. назад | Торрент скачан:17 раз
Смотреть онлайн Смычок | Скачать    Ребята, помогите собрать деньги на оплату серверов!!!

14-05-2022 02:46 Смычок Скачать торрент  

Смычок
Год выпуска: 2022
Страна: Россия
Выпущено: Start Studio, фонд «Пример Интонации»
Жанр: Драма
Продолжительность: ~ 00:50:00
Перевод: Не требуется
Субтитры: отсутствуют

Режиссер: Александр Цой



В ролях: Марк Эйдельштейн, Кристина Кучеренко, Катерина Беккер, Владислав Миллер, Полина Давыдова, Рузиль Минекаев, Михаил Кремер, Лев Малишава, Екатерина Соколова-Жубер, Евгений Сидихин, Евгений Иванов, София Эль-Гедави, Александр Яцко, Андрей Вергелис, Татьяна Колганова, Илья Халмурзаев

Описание: Сеня одержим классической музыкой. Он отправляется поступать в престижную консерваторию в Питере и ближайшие годы планирует посвятить только игре на скрипке. Но реальность оказывается гораздо сложнее: на вокзале ему подкидывают сверток с запрещенными веществами и шантажом вынуждают стать кладменом. Теперь Сеню зовут «Смычок», и он начинает понимать, что новое занятие — быстрый социальный лифт и легкий способ заработать большие деньги, с которыми придут новые друзья, независимость и уверенность в себе... Или не придут, а только лишат амбиций стать великим музыкантом?

Качество: WEBRip-AVC
Формат: MKV

Видео: MPEG-4 AVC, ~ 1600 Кбит/с, 1024x576, 25 кадр/с
Аудио: 48.0 kHz, AC3 Dolby Digital, 2/0 (L,R) ch, ~ 192 kbps
скриншот  скриншот  скриншот  скриншот  скриншот  

General
Unique ID : 210105775361116097084244445721915718301 (0x9E10E6824BE8D7B5909800F4E9167A9D)
Complete name : F:\Смычок.(2022).WEBRip.(AVC).Files-x\01.Смычок.(2022).WEBRip.(AVC).by.Серый1779.Files-x.mkv
Format : Matroska
Format version : Version 2
File size : 693 MiB
Duration : 54 min 0 s
Overall bit rate : 1 794 kb/s
Encoded date : UTC 2022-05-13 19:43:26
Writing application : mkvmerge v7.8.0 ('River Man') 32bit built on Apr 3 2015 12:11:22
Writing library : libebml v1.3.1 + libmatroska v1.4.2

Video
ID : 1
Format : AVC
Format/Info : Advanced Video Codec
Format profile : High@L4.1
Format settings : CABAC / 9 Ref Frames
Format settings, CABAC : Yes
Format settings, RefFrames : 9 frames
Codec ID : V_MPEG4/ISO/AVC
Duration : 54 min 0 s
Bit rate : 1 600 kb/s
Width : 1 024 pixels
Height : 576 pixels
Display aspect ratio : 16:9
Frame rate mode : Constant
Frame rate : 25.000 FPS
Color space : YUV
Chroma subsampling : 4:2:0
Bit depth : 8 bits
Scan type : Progressive
Bits/(Pixel*Frame) : 0.109
Stream size : 605 MiB (87%)
Writing library : x264 core 146 r2538 121396c
Encoding settings : cabac=1 / ref=9 / deblock=1:-2:-1 / analyse=0x3:0x133 / me=umh / subme=9 / psy=1 / psy_rd=1.00:0.15 / mixed_ref=1 / me_range=32 / chroma_me=1 / trellis=2 / 8x8dct=1 / cqm=0 / deadzone=21,11 / fast_pskip=0 / chroma_qp_offset=-3 / threads=18 / lookahead_threads=3 / sliced_threads=0 / nr=0 / decimate=1 / interlaced=0 / bluray_compat=0 / constrained_intra=0 / bframes=9 / b_pyramid=2 / b_adapt=2 / b_bias=0 / direct=1 / weightb=1 / open_gop=0 / weightp=2 / keyint=250 / keyint_min=25 / scenecut=40 / intra_refresh=0 / rc=2pass / mbtree=0 / bitrate=1600 / ratetol=1.0 / qcomp=0.60 / qpmin=0 / qpmax=69 / qpstep=4 / cplxblur=20.0 / qblur=0.5 / ip_ratio=1.40 / pb_ratio=1.30 / aq=2:1.00
Default : Yes
Forced : No
Color range : Limited
Color primaries : BT.709
Transfer characteristics : BT.709
Matrix coefficients : BT.709

Audio
ID : 2
Format : AC-3
Format/Info : Audio Coding 3
Format settings, Endianness : Big
Codec ID : A_AC3
Duration : 54 min 0 s
Bit rate mode : Constant
Bit rate : 192 kb/s
Channel(s) : 2 channels
Channel positions : Front: L R
Sampling rate : 48.0 kHz
Frame rate : 31.250 FPS (1536 SPF)
Bit depth : 16 bits
Compression mode : Lossy
Stream size : 74.2 MiB (11%)
Service kind : Complete Main
Default : Yes
Forced : No

Внимание! Раздача ведётся путём добавления новых серий; при каждом добавлении создаётся новый торрент.
Чтобы начать докачку новой серии, пользователям необходимо сделать следующее:
1. Остановить скачивание;
2. Удалить старый торрент у себя из клиента (старые серии удалять не надо);
3. Скачать новый торрент и запустить его у себя в клиенте вместо старого, при этом указать клиенту путь в старую папку куда и должно происходить скачивание новых серий. Ваш клиент при этом должен произвести хеширование (проверку) старой папки и будет докачивать только те серии, которых у вас ещё нет. Старые серии при этом не удаляются, а продолжают раздаваться! Eсли вы уже удалили старые серии, то предотвратить повторную закачку старых серий можно, отжав галочку в соответствующих местах при запуске нового торрента.

pb.wtf



Скачать Смычок через торрент https://i117.fastpic.org/big/2022/0513/fc/ace4682588cb201eb6fdc35fefb262fc.jpg Скачать, смотреть онлайн Смычок бесплантно в хорошем качестве Описание: Сеня одержим классической музыкой. Он отправляется поступать в престижную консерваторию в Питере и ближайшие годы планирует ... 8.2 10 5
Торрент: Зарегистрирован [2022-06-24 18:05] · скачан: 17 раз
Статус: √ проверено
Размер: 4.74 GB
Как cкачать? Как скачать Смычок через торрент | UTorrent

% Раздел Тема Автор DL S | L
Наши сериалы [ 17.71 GB ] Смычок / Сезон: 1 / Серии: 1-8 из 8 [2022 WEBRip 1080p] bober100 Скачать
1 | 3
Наши сериалы [ 4.97 GB ] Смычок / Сезон: 1 / Серии: 1-8 из 8 [2022 WEBRip] bober100 Скачать
9 | 0


Последний раз редактировалось: bober100 (2022-06-24 18:05), всего редактировалось 2 раз(а)

28-11-2019 20:33  

Отключить всю рекламу на сайте

12-06-2022 08:17 Смычок Скачать торрент  

Кладмен? Вы серьезно? А что закладчик типа не солидно? Как не назови "очковых змей" все равно глистами останутся.pb.wtf



    Дорогой пользователь! Огромная просьба, поблагодарите релизера, оцените раздачу и оставьте свои комментарий, если Вы скачали Смычок через торрент бесплатно!
    Комментировать посты могут только пользователи прошедшие не сложную регистрацию
    Показать сообщения:    

    Смычок через торрент
    Скачать бесплатно Смычок
    Смычок скачать торрент
    Смычок смотреть онлайн
    Cкачать фильм Смычок бесплатно
    Смычок скачать торрент в хорошем качестве
    Смычок смотреть онлайн бесплатно в хорошем качестве


    Вы не можете начинать темы
    Вы не можете отвечать на сообщения
    Вы не можете редактировать свои сообщения
    Вы не можете удалять свои сообщения
    Вы не можете голосовать в опросах
    Вы не можете прикреплять файлы к сообщениям
    Вы можете скачивать файлы