Всегда рабочее зеркало без VPN и Proxy просто перед .vidak.icu напиши любое слово или цифру, Пример http://a97z.vidak.icu

Лицензия

MVO

1 сезон

1

1 сезон

iTunes

1 сезон

13

1 сезон

Deluxe

pack

Рекомендуем

Repack

30

ВАЖНО

RePack

MK11

RePack

jed

RePack

fifa19

RePack

RDR2

RePack

NEED FOR SPEED™ PAYBACK

Кинопоиск HD

6 сезон

 Острые козырьки 6 сезон

Все сериалы

все сериалы на PB.wtf

RePack

FAR CRY 5
  
Magnet ссылка

Всё везде и сразу / Everything Everywhere All at Once (Дэн Кван, Дэниэл Шайнерт) [2022, Фантастика, комедия, боевик, приключения, фэнтези, WEB-DLRip-AVC] DUB [TS] pb.wtf

Всё везде и сразу через торрент pb.wtf

Раздают: 2 [ 0 KB/s ]
Размер: 2.75 GB | Добавлен: 2 мес. 28 д. назад | Торрент скачан:79 раз
Смотреть онлайн Всё везде и сразу | Скачать    Ребята, помогите собрать деньги на оплату серверов!!!

20-05-2022 10:31 Всё везде и сразу Скачать торрент  

Всё везде и сразу
Everything Everywhere All at Once

Год выпуска: 2022
Страна: США
Выпущено: AGBO, Hotdog Hands, Ley Line Entertainment
Жанр: Фантастика, комедия, боевик, приключения, фэнтези
Продолжительность: 02:19:19
Перевод: Дублированный | TS - (микс звука экранки с оригиналом)
Субтитры: Русские (Forsed), английские (full) и (хардсаб) на китайскую речь.

Режиссер: Дэн Кван, Дэниэл Шайнерт

rating

В ролях: Мишель Йео, Джейми Ли Кёртис, Ке Хюи Куан, Стефани Сюй, Джеймс Хун, Тэлли Медел, Дженни Слейт, Гарри Шам мл., Бифф Уифф, Сунита Мани

Описание: В жизни Эвелин царит бардак. Она никак не может составить налоговый отчёт, пожилой отец постоянно требует внимания, муж витает в облаках, а ещё и дочка привела свою девушку знакомиться с семьёй. Во время визита в налоговую всё запутывается ещё сильнее — оказывается, Эвелин может скакать по параллельным вселенным и получать доступ к воспоминаниям и навыкам других версий самой себя. И теперь, в полнейшем хаосе, женщине придётся противостоять загадочной злой сущности, которая решила разрушить не только этот мир, но и всю мультивселенную.

Качество: WEB-DLRip-AVC
Формат: MKV

Видео: MPEG-4 AVC, 1152x624 (1.85:1), 23.976 fps, ~ 2385 kbps avg
Аудио 1: 48 kHz, AC3 Dolby Digital, 2.0 ch, ~ 224 kbps rus
Аудио 2: 48 kHz, E-AC3 Dolby Digital, 5.1 ch, ~ 384 kbps eng
скриншот  скриншот  скриншот  скриншот  

General
Unique ID : 62775341576142354086426490079678293816 (0x2F3A174C8042FA6E298D1D76664BE738)
Complete name : Everything.Everywhere.All.At.Once.2022.WEB-DLRip.Dub.Mix.2.0.mkv
Format : Matroska
Format version : Version 4 / Version 2
File size : 2.75 GiB
Duration : 2 h 19 min
Overall bit rate : 2 826 kb/s
Encoded date : UTC 2022-05-19 15:15:53
Writing application : mkvmerge v64.0.0 ('Willows') 64-bit
Writing library : libebml v1.4.2 + libmatroska v1.6.4

Video
ID : 1
Format : AVC
Format/Info : Advanced Video Codec
Format profile : [email protected]
Format settings : CABAC / 16 Ref Frames
Format settings, CABAC : Yes
Format settings, ReFrames : 16 frames
Codec ID : V_MPEG4/ISO/AVC
Duration : 2 h 19 min
Bit rate : 2 216 kb/s
Width : 1 152 pixels
Height : 624 pixels
Display aspect ratio : 1.85:1
Frame rate mode : Constant
Frame rate : 23.976 (24000/1001) FPS
Color space : YUV
Chroma subsampling : 4:2:0
Bit depth : 8 bits
Scan type : Progressive
Bits/(Pixel*Frame) : 0.129
Stream size : 2.16 GiB (78%)
Writing library : x264 core 148 r2638 7599210
Encoding settings : cabac=1 / ref=16 / deblock=1:0:0 / analyse=0x3:0x113 / me=umh / subme=10 / psy=1 / psy_rd=1.00:0.00 / mixed_ref=1 / me_range=32 /
chroma_me=1 / trellis=2 / 8x8dct=1 / cqm=0 / deadzone=21,11 / fast_pskip=1 / chroma_qp_offset=-2 / threads=12 / lookahead_threads=3 / sliced_threads=0 / nr=0 / decimate=1 /
interlaced=0 / bluray_compat=0 / constrained_intra=0 / bframes=16 / b_pyramid=2 / b_adapt=2 / b_bias=0 / direct=3 / weightb=1 / open_gop=0 / weightp=2 / keyint=250 /
keyint_min=23 / scenecut=40 / intra_refresh=0 / rc_lookahead=60 / rc=2pass / mbtree=1 / bitrate=2216 / ratetol=1.0 / qcomp=0.60 / qpmin=0 / qpmax=69 / qpstep=4 /
cplxblur=20.0 / qblur=0.5 / ip_ratio=1.40 / aq=1:1.00
Language : Russian
Default : Yes
Forced : No
Color range : Limited
Color primaries : BT.709
Transfer characteristics : BT.709
Matrix coefficients : BT.709

Audio #1
ID : 2
Format : AC-3
Format/Info : Audio Coding 3
Codec ID : A_AC3
Duration : 2 h 19 min
Bit rate mode : Constant
Bit rate : 224 kb/s
Channel(s) : 2 channels
Channel positions : Front: L R
Sampling rate : 48.0 kHz
Frame rate : 31.250 FPS (1536 SPF)
Bit depth : 16 bits
Compression mode : Lossy
Stream size : 223 MiB (8%)
Title : Rus. Dub. Mix. AC3. 2.0. 224 kbps
Language : Russian
Service kind : Complete Main
Default : Yes
Forced : No

Audio #2
ID : 3
Format : E-AC-3
Format/Info : Enhanced Audio Coding 3
Codec ID : A_EAC3
Duration : 2 h 19 min
Bit rate mode : Constant
Bit rate : 384 kb/s
Channel(s) : 6 channels
Channel positions : Front: L C R, Side: L R, LFE
Sampling rate : 48.0 kHz
Frame rate : 187.500 FPS (256 SPF)
Compression mode : Lossy
Stream size : 383 MiB (14%)
Title : Eng. AC3. 5.1. 384 kbps
Language : English
Service kind : Complete Main
Default : No
Forced : No

Text #1
ID : 4
Format : UTF-8
Codec ID : S_TEXT/UTF8
Codec ID/Info : UTF-8 Plain Text
Duration : 2 h 4 min
Bit rate : 3 b/s
Count of elements : 50
Stream size : 2.94 KiB (0%)
Title : Forsed. Ru.
Language : Russian
Default : Yes
Forced : No

Text #2
ID : 5
Format : UTF-8
Codec ID : S_TEXT/UTF8
Codec ID/Info : UTF-8 Plain Text
Duration : 2 h 17 min
Bit rate : 41 b/s
Count of elements : 1668
Stream size : 41.9 KiB (0%)
Title : Eng.
Language : English
Default : No
Forced : No

pb.wtf



Скачать Всё везде и сразу через торрент https://i6.imageban.ru/out/2022/05/19/7723a7790678aa0f9bf76d9b085c40a1.jpg Скачать, смотреть онлайн Всё везде и сразу бесплантно в хорошем качестве Описание: В жизни Эвелин царит бардак. Она никак не может составить налоговый отчёт, пожилой отец постоянно требует внимания, муж витает в ... 7.4 10 7
Info! Золотая раздача, скачанное не засчитывается.
Торрент: Зарегистрирован [2022-05-20 10:31] · скачан: 79 раз
Статус: T временная
Размер: 2.75 GB
Как cкачать? Как скачать Всё везде и сразу через торрент | UTorrent

% Раздел Тема Автор DL S | L
Фильмы [HD 720p, 1080p] (Хороший звук DUB, MVO) [ 18.04 GB ] Всё везде и сразу / Everything Everywhere All at Once [2022 BDRip 1080p] DUB [СиПиАй Филмз / CPI Films] +MVO [Jaskier] bober100 Скачать
3 | 1
Фильмы 2022 [DVDrip, WEB-DLRip, HDrip] (DUB, MVO) [ 1.46 GB ] Всё везде и сразу / Everything Everywhere All at Once [2022 BDRip] DUB [СиПиАй Филмз / CPI Films] bober100 Скачать
5 | 0
Фильмы 2022 [DVDrip, WEB-DLRip, HDrip] (DUB, MVO) [ 2.18 GB ] Всё везде и сразу / Everything Everywhere All at Once [2022 BDRip] DUB [СиПиАй Филмз / CPI Films] bober100 Скачать
2 | 0
Фильмы 2022 [DVDrip, WEB-DLRip, HDrip] (DUB, MVO) [ 2.99 GB ] Всё везде и сразу / Everything Everywhere All at Once [2022 WEB-DLRip-AVC] DUB MVO [CPI Films Jaskier] от ExKinoRay Lithuania Скачать
4 | 0
Фильмы 2022 [DVDrip, WEB-DLRip, HDrip] (DUB, MVO) [ 1.46 GB ] Всё везде и сразу / Everything Everywhere All at Once [2022 WEB-DLRip] DUB [СиПиАй Филмз / CPI Films] bober100 Скачать
6 | 0
Ultra HD (UHD: 2K, 4K, 8K) — видео сверхвысокой чёткости [ 16.02 GB ] Всё везде и сразу / Everything Everywhere All at Once [2022 UHD WEB-DL-HEVC 2160p] DUB [СиПиАй Филмз / CPI Films] +MVO [Jaskier] bober100 Скачать
6 | 0
Фильмы [HD 720p, 1080p] (Хороший звук DUB, MVO) [ 7.51 GB ] Всё везде и сразу / Everything Everywhere All at Once [2022 BDRip 720p] DUB [СиПиАй Филмз / CPI Films] +MVO [Jaskier] bober100 Скачать
4 | 0

28-11-2019 20:33  

Отключить вcю реклaмy на сайте

20-05-2022 18:56 Всё везде и сразу Скачать торрент  

ну и отстой .... пепецpb.wtf



    Дорогой пользователь! Огромная просьба, поблагодарите релизера, оцените раздачу и оставьте свои комментарий, если Вы скачали Всё везде и сразу через торрент бесплатно!
    Комментировать посты могут только пользователи прошедшие не сложную регистрацию
    Показать сообщения:    

    Всё везде и сразу через торрент
    Скачать бесплатно Всё везде и сразу
    Всё везде и сразу скачать торрент
    Всё везде и сразу смотреть онлайн
    Cкачать фильм Всё везде и сразу бесплатно
    Всё везде и сразу скачать торрент в хорошем качестве
    Всё везде и сразу смотреть онлайн бесплатно в хорошем качестве


    Вы можете начинать темы
    Вы можете отвечать на сообщения
    Вы не можете редактировать свои сообщения
    Вы не можете удалять свои сообщения
    Вы не можете голосовать в опросах
    Вы не можете прикреплять файлы к сообщениям
    Вы можете скачивать файлы