Доктор Стрэндж

Лицензия

Добыча

Дубляж

Дом дракона

1 сезон

Тор

Дубляж

В эфире

Дубляж

Там, где раки поют

MVO

Властелин колец

1 сезон

Deluxe

pack

Рекомендуем

30

Пиратка

ВАЖНО

ВАЖНО

Ghostwire

Пиратка

jed

RePack

nioh2

RePack

RDR2

RePack

NEED FOR SPEED™ PAYBACK

RePack

скачать торрент

Кинопоиск HD

Острые козырьки 6 сезон

6 сезон

FAR CRY 6

RePack

скачать торрент

Лицензия

скачать торрент

MVO

1

1 сезон

скачать торрент

1 сезон

скачать торрент

Лицензия

  

Чёрная Вдова 3D/ Black Widow 3D(Кейт Шортланд) [2021 г., фантастика, боевик, приключения, BDRip 1080p, Дубляж] (IMAX) Анаглиф (Дюбуа) от R.G. HD-Films

Чёрная Вдова 3D через торрент pb.wtf

Размер: 8.43 GB | Добавлен: 5 мес. 12 д. назад | Торрент скачан:10 раз
Смотреть онлайн | Скачать   

20-06-2022 12:08 Чёрная Вдова 3D Скачать торрент  

Чёрная Вдова в 3D/ Black Widow in 3D
Год выпуска: 2021
Страна: США
Жанр: фантастика, боевик, приключения
Продолжительность: 02:13:47
Перевод: Дубляж
Субтитры: Русские (Forced вшитые, full), украинские (Forced), английские

Режиссер: Кейт Шортланд

Бюджет: $200 000 000
Премьера в мире: 30 июня 2021

rating

В ролях: Скарлетт Йоханссон, Флоренс Пью, Дэвид Харбор, Рэйчел Вайс, О. Т. Фагбенли, Рэй Уинстон, Мишель Ли, Оливье Рихтерс, Ахмед Бакаре, Иоланда Лайнс, Эвер Андерсон, Ольга Куриленко

Описание: Наташе Романофф предстоит лицом к лицу встретиться со своим прошлым. Чёрной Вдове придется вспомнить о том, что было в её жизни задолго до присоединения к команде Мстителей, и узнать об опасном заговоре, в который оказываются втянуты её старые знакомые — Елена, Алексей (известный как Красный Страж) и Мелина.

Доп. информация: Аспект кадра основной части фильма - 2.39 : 1. В IMAX сценах - 1.90 : 1.
Формат 3D: Анаглиф (Дюбуа)



Качество: BDRip 1080p
Формат: MKV
Видео кодек: H.264
Аудио кодек: AC3
Видео: 1920 x 1080 (16:9), 7803 kbps, 23,976 fps, 0.157 bpp
Аудио#1: Русский / AC3 / 48 KHz / 5.1 ch / 384 Kbps (Дубляж - iTunes)
Аудио#2: Украинский / AC3 / 48 KHz / 2 ch / 192 Kbps (Дубляж - Line) (моно) (спасибо Hurtom!)
Аудио#3: English / AC3 / 48 KHz / 5.1 ch / 640 Kbps (Original - BD 3D Jap)
Релиз от: Автор рипа: slaventi-69
Общее
Уникальный идентификатор : 104479250957386301770570947178195183812 (0x4E99F8C7CAFC4DE336E5F267C4BDE8C4)
Полное имя : G:\60 FPS\Black.Widow.(2021).3D.(Anaglyph_Dubois).(IMAX).mkv
Формат : Matroska
Версия формата : Version 4
Размер файла : 8,43 Гбайт
Продолжительность : 2 ч. 13 м.
Общий поток : 9022 Кбит/сек
Название фильма : Чёрная Вдова / Black Widow (2021) in 3D (Anaglyph_Dubois) IMAX version
Дата кодирования : UTC 2022-06-16 07:47:23
Программа кодирования : mkvmerge v25.0.0 ('Prog Noir') 64-bit
Библиотека кодирования : libebml v1.3.6 + libmatroska v1.4.9

Видео
Идентификатор : 1
Формат : AVC
Формат/Информация : Advanced Video Codec
Профиль формата : [email protected]
MultiView_Count : 2
MultiView_Layout : Anaglyph (cyan/red)
Настройки формата : CABAC / 4 Ref Frames
Параметр CABAC формата : Да
Параметр RefFrames формата : 4 кадра
Идентификатор кодека : V_MPEG4/ISO/AVC
Продолжительность : 2 ч. 13 м.
Битрейт : 7803 Кбит/сек
Ширина : 1920 пикселей
Высота : 1080 пикселей
Соотношение сторон : 16:9
Режим частоты кадров : Постоянный
Частота кадров : 23,976 кадра/сек
Цветовое пространство : YUV
Субдискретизация насыщенности : 4:2:0
Битовая глубина : 8 бит
Тип развёртки : Прогрессивная
Бит/(Пиксели*Кадры) : 0.157
Размер потока : 7,29 Гбайт (86%)
Заголовок : slaventi-69 ( R.G. HD-Films ) 3Д (Anaglyph_Dubois)
Библиотека кодирования : x264 core 130 r2273 b3065e6
Настройки программы : cabac=1 / ref=4 / deblock=1:-3:-3 / analyse=0x3:0x133 / me=umh / subme=9 / psy=1 / psy_rd=1.00:0.00 / mixed_ref=1 / me_range=32 / chroma_me=1 / trellis=2 / 8x8dct=1 / cqm=0 / deadzone=21,11 / fast_pskip=0 / chroma_qp_offset=-2 / threads=8 / lookahead_threads=4 / sliced_threads=0 / nr=0 / decimate=1 / interlaced=0 / bluray_compat=0 / constrained_intra=0 / bframes=4 / b_pyramid=2 / b_adapt=2 / b_bias=0 / direct=1 / weightb=1 / open_gop=0 / weightp=2 / keyint=600 / keyint_min=23 / scenecut=40 / intra_refresh=0 / rc=crf / mbtree=0 / crf=18.5 / qcomp=0.60 / qpmin=0 / qpmax=69 / qpstep=4 / ip_ratio=1.40 / pb_ratio=1.30 / aq=1:1.00
Язык : English
Default : Да
Forced : Нет

Аудио #1
Идентификатор : 2
Формат : AC-3
Формат/Информация : Audio Coding 3
Коммерческое название : Dolby Digital
Идентификатор кодека : A_AC3
Продолжительность : 2 ч. 13 м.
Вид битрейта : Постоянный
Битрейт : 384 Кбит/сек
Каналы : 6 каналов
Channel layout : L R C LFE Ls Rs
Частота : 48,0 КГц
Частота кадров : 31,250 кадров/сек (1536 SPF)
Битовая глубина : 16 бит
Метод сжатия : С потерями
Размер потока : 367 Мбайт (4%)
Заголовок : Дубляж (iTunes)
Язык : Russian
ServiceKind/String : Complete Main
Default : Да
Forced : Нет

Аудио #2
Идентификатор : 3
Формат : AC-3
Формат/Информация : Audio Coding 3
Коммерческое название : Dolby Digital
Идентификатор кодека : A_AC3
Продолжительность : 2 ч. 13 м.
Вид битрейта : Постоянный
Битрейт : 192 Кбит/сек
Каналы : 2 канала
Channel layout : L R
Частота : 48,0 КГц
Частота кадров : 31,250 кадров/сек (1536 SPF)
Битовая глубина : 16 бит
Метод сжатия : С потерями
Размер потока : 184 Мбайт (2%)
Заголовок : Дубляж (Line, моно)
Язык : Ukrainian
ServiceKind/String : Complete Main
Default : Нет
Forced : Нет

Аудио #3
Идентификатор : 4
Формат : AC-3
Формат/Информация : Audio Coding 3
Коммерческое название : Dolby Digital
Идентификатор кодека : A_AC3
Продолжительность : 2 ч. 13 м.
Вид битрейта : Постоянный
Битрейт : 640 Кбит/сек
Каналы : 6 каналов
Channel layout : L R C LFE Ls Rs
Частота : 48,0 КГц
Частота кадров : 31,250 кадров/сек (1536 SPF)
Битовая глубина : 16 бит
Метод сжатия : С потерями
Размер потока : 612 Мбайт (7%)
Заголовок : Original
Язык : English
ServiceKind/String : Complete Main
Default : Нет
Forced : Нет

Текст #1
Идентификатор : 5
Формат : UTF-8
Идентификатор кодека : S_TEXT/UTF8
Идентификатор кодека/Информация : UTF-8 Plain Text
Продолжительность : 2 ч. 12 м.
Битрейт : 59 бит/сек
ElementCount : 1255
Размер потока : 58,2 Кбайт (0%)
Заголовок : Полные (iTunes)
Язык : Russian
Default : Нет
Forced : Нет

Текст #2
Идентификатор : 6
Формат : UTF-8
Идентификатор кодека : S_TEXT/UTF8
Идентификатор кодека/Информация : UTF-8 Plain Text
Продолжительность : 2 ч. 10 м.
Битрейт : 3 бит/сек
ElementCount : 84
Размер потока : 3,29 Кбайт (0%)
Заголовок : Форсированные
Язык : Ukrainian
Default : Нет
Forced : Нет

Текст #3
Идентификатор : 7
Формат : UTF-8
Идентификатор кодека : S_TEXT/UTF8
Идентификатор кодека/Информация : UTF-8 Plain Text
Продолжительность : 1 ч. 49 м.
Битрейт : 1 бит/сек
ElementCount : 37
Размер потока : 885 байт (0%)
Заголовок : Forced
Язык : English
Default : Нет
Forced : Нет

Текст #4
Идентификатор : 8
Формат : UTF-8
Идентификатор кодека : S_TEXT/UTF8
Идентификатор кодека/Информация : UTF-8 Plain Text
Продолжительность : 2 ч. 12 м.
Битрейт : 40 бит/сек
ElementCount : 1345
Размер потока : 39,1 Кбайт (0%)
Заголовок : Full
Язык : English
Default : Нет
Forced : Нет

Текст #5
Идентификатор : 9
Формат : UTF-8
Идентификатор кодека : S_TEXT/UTF8
Идентификатор кодека/Информация : UTF-8 Plain Text
Продолжительность : 2 ч. 13 м.
Битрейт : 46 бит/сек
ElementCount : 1630
Размер потока : 45,7 Кбайт (0%)
Заголовок : SDH
Язык : English
Default : Нет
Forced : Нет

Меню
00:00:00.000 : :1
00:04:55.170 : :2
00:13:10.081 : :3
00:16:24.567 : :4
00:18:41.871 : :5
00:21:41.634 : :6
00:25:40.789 : :7
00:30:06.346 : :8
00:39:05.468 : :9
00:44:46.350 : :10
00:53:25.994 : :11
01:01:38.153 : :12
01:07:46.271 : :13
01:11:40.671 : :14
01:17:48.789 : :15
01:27:19.234 : :16
01:33:33.441 : :17
01:37:37.477 : :18
01:41:18.656 : :19
01:45:37.873 : :20
01:51:41.653 : :21
01:57:09.105 : :22
02:01:59.687 : :23
02:04:25.458 : :24

Просьба к переливающим на другие сайты, в оформлении указывайте пожалуйста авторство группы R.G. HD-Films



Скачать Чёрная Вдова 3D через торрент https://i6-imageban-ru.translate.goog/out/2021/12/30/c1357e93e89a1cc0369aaf34ee8ec757.png Скачать, смотреть онлайн Чёрная Вдова 3D бесплантно в хорошем качестве Описание: Наташе Романофф предстоит лицом к лицу встретиться со своим прошлым. Чёрной Вдове придется вспомнить о том, что было в её жизни ... 10 10 1
Торрент: Зарегистрирован [2022-06-20 12:08] · скачан: 10 раз
Статус: √ проверено
Размер: 8.43 GB
Как cкачать? Как скачать Чёрная Вдова 3D через торрент | UTorrent

28-11-2019 20:33  


Отключить вcю реклaмy на сайте, в т.ч. и в плеере онлайн просмотра!

    Дорогой пользователь! Огромная просьба, поблагодарите релизера, оцените раздачу и оставьте свои комментарий, если Вы скачали Чёрная Вдова 3D через торрент бесплатно!!
    Комментировать посты могут только пользователи прошедшие не сложную регистрацию
    Показать сообщения:    


    Чёрная Вдова 3D через торрент
    Скачать бесплатно Чёрная Вдова 3D
    Чёрная Вдова 3D скачать торрент
    Чёрная Вдова 3D смотреть онлайн
    Cкачать фильм Чёрная Вдова 3D бесплатно
    Чёрная Вдова 3D скачать торрент в хорошем качестве
    Чёрная Вдова 3D смотреть онлайн бесплатно в хорошем качестве
    Вы не можете начинать темы
    Вы не можете отвечать на сообщения
    Вы не можете редактировать свои сообщения
    Вы не можете удалять свои сообщения
    Вы не можете голосовать в опросах
    Вы не можете прикреплять файлы к сообщениям
    Вы можете скачивать файлы
    Чёрная Вдова 3D/ Black Widow 3D [2021 г., фантастика, боевик, приключения, BDRip 1080p, Дубляж] Анаглиф от R.G. HD-Films смотреть онлайн, скачать торрент picoco.icu