Доктор Стрэндж

Лицензия

Добыча

Дубляж

Уэнсдэй

1 сезон

Тор

Дубляж

В эфире

Дубляж

Там, где раки поют

MVO

Властелин колец

1 сезон

Deluxe

pack

Рекомендуем

30

Пиратка

ВАЖНО

ВАЖНО

Ghostwire

Пиратка

jed

RePack

nioh2

RePack

RDR2

RePack

NEED FOR SPEED™ PAYBACK

RePack

скачать торрент

Кинопоиск HD

Острые козырьки 6 сезон

6 сезон

FAR CRY 6

RePack

скачать торрент

Лицензия

скачать торрент

MVO

1

1 сезон

скачать торрент

1 сезон

скачать торрент

Лицензия

  

Малефисента: Владычица тьмы 3D / Maleficent: Mistress of Evil 3D (Хоаким Роннинг) [2019 г., фэнтези, приключения, семейный, 3D BDRip 1080p, Дубляж iTunes] Анаглиф (Дюбуа) от R.G. HD-Films

Малефисента: Владычица тьмы 3D через торрент pb.wtf

Размер: 6.92 GB | Добавлен: 3 мес. 28 д. назад | Торрент скачан:4 раза
Смотреть онлайн | Скачать   

06-08-2022 14:52 Малефисента: Владычица тьмы 3D Скачать торрент  

Малефисента: Владычица тьмы 3D / Maleficent: Mistress of Evil 3D
Год выпуска: 2019
Страна: США, Великобритания
Жанр: фэнтези, приключения, семейный
Продолжительность: 01:58:51
Перевод: Дубляж iTunes
Субтитры: Русские (Forced вшитые(название фильма), full), украинские Forced(название фильма), английские

Режиссер: Хоаким Роннинг

rating

В ролях: Анджелина Джоли, Элль Фэннинг, Харрис Дикинсон, Мишель Пфайффер, Сэм Райли, Чиветел Эджиофор, Эд Скрейн, Роберт Линдсей, Дэвид Гяси, Дженн Мюррэй

Описание: Принцесса Аврора выросла, и теперь принц Филип делает ей предложение. Наивные молодые люди уверены, что их брак сможет объединить два королевства и помирить людей с волшебными существами, но не тут-то было. На совместном ужине с родителями Филипа, королём Джоном и королевой Ингрит, куда была приглашена и крёстная Авроры, происходит ссора, в результате чего король слегает с недомоганием явно магического свойства, а Малифисента вынуждена спасаться бегством.

Доп. информация: Формат 3D: Анаглиф (Дюбуа)



Качество: 3D BDRip 1080p
Формат: MKV
Видео кодек: H.264
Аудио кодек: AC3
Видео: x264, 1920 x 1080 (16:9), 7123 kbps, 23,976 fps, ( 0.143 bpp)
Аудио#1: Русский / AC3 / 48 KHz / 5.1 ch / 384 Kbps (Дубляж - iTunes)
Аудио#2: Украинский / AC3 / 48 KHz / 2 ch / 192 Kbps (Дубляж) (спасибо Hurtom!)
Аудио#3: Английский / AC3 / 48 KHz / 5.1 ch / 640 Kbps (Original - BD 3D)
Релиз от: Автор рипа: slaventi-69
x264 [info]: using cpu capabilities: MMX2 SSE2Fast SSSE3 SSE4.2 AVX AVX2 FMA3 LZCNT BMI1 BMI2
x264 [info]: profile High, level 4.1

x264 [info]: frame I:2135 Avg QP:13.22 size:163592
x264 [info]: frame P:48578 Avg QP:14.56 size: 64026
x264 [info]: frame B:120251 Avg QP:16.67 size: 24028
x264 [info]: consecutive B-frames: 3.9% 8.2% 16.2% 38.0% 33.6%


Общее
Уникальный идентификатор : 279883730055980999470103490958404265953 (0xD28FA54A60A49B1A3F3E1022351EA7E1)
Полное имя : G:\60 FPS\Maleficent_Mistress.of.Evil.(2019).3D.(Anaglyph_Dubois).mkv
Формат : Matroska
Версия формата : Version 4
Размер файла : 6,92 Гбайт
Продолжительность : 1 ч. 58 м.
Общий поток : 8342 Кбит/сек
Название фильма : Малефисента: Владычица тьмы / Maleficent: Mistress of Evil (2019) in 3D (Anaglyph_Dubois)
Дата кодирования : UTC 2022-08-06 14:07:23
Программа кодирования : mkvmerge v69.0.0 ('Day And Age') 64-bit
Библиотека кодирования : libebml v1.4.2 + libmatroska v1.6.4

Видео
Идентификатор : 1
Формат : AVC
Формат/Информация : Advanced Video Codec
Профиль формата : [email protected]
MultiView_Count : 2
MultiView_Layout : Anaglyph (cyan/red)
Настройки формата : CABAC / 4 Ref Frames
Параметр CABAC формата : Да
Параметр RefFrames формата : 4 кадра
Идентификатор кодека : V_MPEG4/ISO/AVC
Продолжительность : 1 ч. 58 м.
Битрейт : 7123 Кбит/сек
Ширина : 1920 пикселей
Высота : 1080 пикселей
Соотношение сторон : 16:9
Режим частоты кадров : Постоянный
Частота кадров : 23,976 (24000/1001) кадра/сек
Цветовое пространство : YUV
Субдискретизация насыщенности : 4:2:0
Битовая глубина : 8 бит
Тип развёртки : Прогрессивная
Бит/(Пиксели*Кадры) : 0.143
Размер потока : 5,91 Гбайт (85%)
Заголовок : slaventi-69 ( R.G. HD-Films ) 3Д (Anaglyph_Dubois)
Библиотека кодирования : x264 core 130 r2273 b3065e6
Настройки программы : cabac=1 / ref=4 / deblock=1:-3:-3 / analyse=0x3:0x133 / me=umh / subme=9 / psy=1 / psy_rd=1.00:0.00 / mixed_ref=1 / me_range=32 / chroma_me=1 / trellis=2 / 8x8dct=1 / cqm=0 / deadzone=21,11 / fast_pskip=0 / chroma_qp_offset=-2 / threads=8 / lookahead_threads=4 / sliced_threads=0 / nr=0 / decimate=1 / interlaced=0 / bluray_compat=0 / constrained_intra=0 / bframes=4 / b_pyramid=2 / b_adapt=2 / b_bias=0 / direct=2 / weightb=1 / open_gop=0 / weightp=2 / keyint=600 / keyint_min=23 / scenecut=40 / intra_refresh=0 / rc=crf / mbtree=0 / crf=20.0 / qcomp=0.60 / qpmin=0 / qpmax=69 / qpstep=4 / ip_ratio=1.40 / pb_ratio=1.30 / aq=1:1.00
Язык : English
Default : Да
Forced : Нет

Аудио #1
Идентификатор : 2
Формат : AC-3
Формат/Информация : Audio Coding 3
Коммерческое название : Dolby Digital
Идентификатор кодека : A_AC3
Продолжительность : 1 ч. 58 м.
Вид битрейта : Постоянный
Битрейт : 384 Кбит/сек
Каналы : 6 каналов
Channel layout : L R C LFE Ls Rs
Частота : 48,0 КГц
Частота кадров : 31,250 кадров/сек (1536 SPF)
Битовая глубина : 16 бит
Метод сжатия : С потерями
Размер потока : 326 Мбайт (5%)
Заголовок : Дубляж (iTunes)
Язык : Russian
ServiceKind/String : Complete Main
Default : Да
Forced : Нет

Аудио #2
Идентификатор : 3
Формат : AC-3
Формат/Информация : Audio Coding 3
Коммерческое название : Dolby Digital
Идентификатор кодека : A_AC3
Продолжительность : 1 ч. 58 м.
Вид битрейта : Постоянный
Битрейт : 192 Кбит/сек
Каналы : 2 канала
Channel layout : L R
Частота : 48,0 КГц
Частота кадров : 31,250 кадров/сек (1536 SPF)
Битовая глубина : 16 бит
Метод сжатия : С потерями
Размер потока : 163 Мбайт (2%)
Заголовок : Дубляж
Язык : Ukrainian
ServiceKind/String : Complete Main
Default : Нет
Forced : Нет

Аудио #3
Идентификатор : 4
Формат : AC-3
Формат/Информация : Audio Coding 3
Коммерческое название : Dolby Digital
Идентификатор кодека : A_AC3
Продолжительность : 1 ч. 58 м.
Вид битрейта : Постоянный
Битрейт : 640 Кбит/сек
Каналы : 6 каналов
Channel layout : L R C LFE Ls Rs
Частота : 48,0 КГц
Частота кадров : 31,250 кадров/сек (1536 SPF)
Битовая глубина : 16 бит
Метод сжатия : С потерями
Размер потока : 544 Мбайт (8%)
Заголовок : Original (BD 3D)
Язык : English
ServiceKind/String : Complete Main
Default : Нет
Forced : Нет

Текст #1
Идентификатор : 5
Формат : UTF-8
Идентификатор кодека : S_TEXT/UTF8
Идентификатор кодека/Информация : UTF-8 Plain Text
Продолжительность : 1 ч. 48 м.
Битрейт : 50 бит/сек
ElementCount : 1010
Размер потока : 40,5 Кбайт (0%)
Заголовок : Полные
Язык : Russian
Default : Нет
Forced : Нет

Текст #2
Идентификатор : 6
Формат : UTF-8
Идентификатор кодека : S_TEXT/UTF8
Идентификатор кодека/Информация : UTF-8 Plain Text
Продолжительность : 1 ч. 50 м.
Битрейт : 69 бит/сек
ElementCount : 1560
Размер потока : 56,3 Кбайт (0%)
Заголовок : SDH
Язык : Russian
Default : Нет
Forced : Нет

Текст #3
Идентификатор : 7
Формат : UTF-8
Идентификатор кодека : S_TEXT/UTF8
Идентификатор кодека/Информация : UTF-8 Plain Text
Продолжительность : 5 с. 755 мс.
Битрейт : 126 бит/сек
ElementCount : 1
Размер потока : 91,0 байт (0%)
Заголовок : Форсированные (название фильма)
Язык : Ukrainian
Default : Нет
Forced : Нет

Текст #4
Идентификатор : 8
Формат : UTF-8
Идентификатор кодека : S_TEXT/UTF8
Идентификатор кодека/Информация : UTF-8 Plain Text
Продолжительность : 1 ч. 49 м.
Битрейт : 31 бит/сек
ElementCount : 1021
Размер потока : 25,5 Кбайт (0%)
Заголовок : Full
Язык : English
Default : Нет
Forced : Нет

Текст #5
Идентификатор : 9
Формат : UTF-8
Идентификатор кодека : S_TEXT/UTF8
Идентификатор кодека/Информация : UTF-8 Plain Text
Продолжительность : 1 ч. 53 м.
Битрейт : 44 бит/сек
ElementCount : 1604
Размер потока : 36,8 Кбайт (0%)
Заголовок : SDH
Язык : English
Default : Нет
Forced : Нет

Меню
00:00:00.000 : : 1. Missing Faeries
00:06:47.907 : : 2. The Big Day
00:09:11.676 : : 3. "Don't Ruin My Morning"
00:14:45.551 : : 4. A Time To Celebrate
00:19:27.833 : : 5. An Evil Plan
00:23:10.556 : : 6. Dinner At The Castle
00:33:51.905 : : 7. Out Of The Sky
00:39:10.265 : : 8. Carried Away
00:42:19.579 : : 9. The Dark Fey
00:48:31.992 : : 10. Nest Of Origin
00:52:44.745 : : 11. Wedding Invitation
00:57:15.140 : : 12. A Different Person
00:59:26.146 : : 13. Underground Secrets
01:05:47.569 : : 14. The Wedding Day
01:09:31.751 : : 15. A Curse Revealed
01:19:07.242 : : 16. A War
01:22:48.547 : : 17. "Remember Who You Are"
01:29:09.219 : : 18. Maleficent Arrives
01:35:00.653 : : 19. Chaos Of War
01:44:26.510 : : 20. "Will You Give Me Away?"
01:51:06.994 : : 21. End Credits / "You Can't Stop The Girl"

Просьба к переливающим на другие сайты, в оформлении указывайте пожалуйста авторство группы R.G. HD-Films



Скачать Малефисента: Владычица тьмы 3D через торрент https://i120.fastpic.org/big/2022/0806/fd/7815193407bee33986b90f6aa5573cfd.jpg Скачать, смотреть онлайн Малефисента: Владычица тьмы 3D бесплантно в хорошем качестве Описание: Принцесса Аврора выросла, и теперь принц Филип делает ей предложение. Наивные молодые люди уверены, что их брак сможет объединить ... 5 10 1
Торрент: Зарегистрирован [2022-08-06 14:52] · скачан: 4 раз
Статус: √ проверено
Размер: 6.92 GB
Как cкачать? Как скачать Малефисента: Владычица тьмы 3D через торрент | UTorrent

% Раздел Тема Автор DL S | L
3D Фильмы [ 15.34 GB ] Малефисента: Владычица тьмы в 3Д / Maleficent: Mistress of Evil 3D | iTunes | 1080p serega768 Скачать
1 | 0
3D Фильмы [ 10.14 GB ] Малефисента: Владычица тьмы 3Д / Maleficent: Mistress of Evil 3D | iTunes | 1080p, (Half OverUnder bober100 Скачать
1 | 0
Фильмы (Blu-ray, BD-Remux, HDDVD) [ 42.13 GB ] Малефисента: Владычица тьмы / Maleficent: Mistress of Evil | iTunes | BD Remux 1080p, (2D/3D bober100 Скачать
1 | 0

28-11-2019 20:33  


Отключить вcю реклaмy на сайте, в т.ч. и в плеере онлайн просмотра!

    Дорогой пользователь! Огромная просьба, поблагодарите релизера, оцените раздачу и оставьте свои комментарий, если Вы скачали Малефисента: Владычица тьмы 3D через торрент бесплатно!!
    Комментировать посты могут только пользователи прошедшие не сложную регистрацию
    Показать сообщения:    


    Малефисента: Владычица тьмы 3D через торрент
    Скачать бесплатно Малефисента: Владычица тьмы 3D
    Малефисента: Владычица тьмы 3D скачать торрент
    Малефисента: Владычица тьмы 3D смотреть онлайн
    Cкачать фильм Малефисента: Владычица тьмы 3D бесплатно
    Малефисента: Владычица тьмы 3D скачать торрент в хорошем качестве
    Малефисента: Владычица тьмы 3D смотреть онлайн бесплатно в хорошем качестве
    Вы не можете начинать темы
    Вы не можете отвечать на сообщения
    Вы не можете редактировать свои сообщения
    Вы не можете удалять свои сообщения
    Вы не можете голосовать в опросах
    Вы не можете прикреплять файлы к сообщениям
    Вы можете скачивать файлы
    Малефисента: Владычица тьмы 3D / Maleficent: Mistress of Evil 3D [2019 г., фэнтези, приключения, семейный, 3D BDRip 1080p, Дубляж iTunes] Анаглиф от R.G. HD-Films смотреть онлайн, скачать торрент picoco.icu